Майбутнє / The Future (2011) 1080p Ukr/Eng | Sub Ukr/Eng

Нові коментарі

Нова тема   Відповісти
Автор Повідомлення
Arch Enemy 
VIP


З нами з: 30.08.12
Востаннє: 25.09.20
Повідомлень: 1909

2020-09-08 19:25  
Майбутнє / The Future (2011) 1080p Ukr/Eng | Sub Ukr/Eng



Жанр: Драма
Країна: Німеччина, США



Кінокомпанії: GNK Productions, Film4, Haut et Court, Medienboard Berlin-Brandenburg, Razor Film Produktion GmbH, The Match Factory
Режисер: Міранда Джулай
Актори: Міранда Джулай, Хеміш Лінклейтер, Девід Варшовскі, Ізабелла Акрес та інші.

Сюжет:
Коли молода пара, Софі та Джейсон, вирішує взяти бездомного кота, їхня життєва перспектива змінюється, буквально спотворюючи простір і час і піддаючи їхню віру в себе і одне в одного випробуванню на міцність. Чи витримають їхні стосунки всі ці труднощі, які на них звалилися?


Тривалість: 01:30:48
Якість: 1080p

Відео:
кодек:
розмір кадру: 1920x1080
бітрейт: змінний, ~8000 Кбіт/сек.
контейнер:

Аудіо # 1:
мова: українська
озвучення: багатоголосе, закадрове
кодек: e-
кількість каналів: 2.0
бітрейт: 640 кбіт/сек.

Аудіо # 2:
мова: англійська
озвучення: оригінал
кодек: e-
кількість каналів: 5.1
бітрейт: 640 кбіт/сек.

Субтитри # 1:
мова: українська
тип: програмні (м'які)
формат: *.srt

Субтитри # 2:
мова: англійська (SDH)
тип: програмні (м'які)
формат: *.srt

Джерело перекладу, озвучення та релізу: AniUA
Info
General
Unique ID : 286823915156903369392008864103527804347 (0xD7C846D59868F7CFD97377C22AC6EDBB)
Complete name : D:\Films\The.Future.2011..1080p.
Format :
Format version : Version 4
File size : 5.85 GiB
Duration : 1 h 30 min
Overall bit rate mode : Variable
Overall bit rate : 9 227 kb/s
Movie name : The Future (2011)
Encoded date : UTC 2020-09-08 16:11:54
Writing application : v40.0.0 ('Old Town Road + Pony') 64-bit
Writing library : libebml v1.3.9 + v1.5.2

Video
ID : 1
Format : AVC
Format/Info : Advanced Video Codec
Format profile : [email protected]
Format settings : CABAC / 4 Ref Frames
Format settings, CABAC : Yes
Format settings, Reference : 4 frames
Codec ID : V_MPEG4/ISO/AVC
Duration : 1 h 30 min
Bit rate mode : Variable
Bit rate : 7 946 kb/s
Maximum bit rate : 15.0 Mb/s
Width : 1 920 pixels
Height : 1 080 pixels
Display aspect ratio : 16:9
Frame rate mode : Constant
Frame rate : 23.976 (24000/1001) FPS
Color space : YUV
Chroma subsampling : 4:2:0
Bit depth : 8 bits
Scan type : Progressive
Bits/(Pixel*Frame) : 0.160
Stream size : 5.04 GiB (86%)
Title : The Future (2011)
Writing library : core 148 r2623 d5b2374
Encoding settings : cabac=1 / ref=4 / deblock=1:-1:-1 / analyse=0x3:0x133 / me=umh / subme=9 / psy=1 / psy_rd=1.00:0.15 / mixed_ref=1 / me_range=24 / chroma_me=1 / trellis=2 / 8x8dct=1 / cqm=0 / deadzone=21,11 / fast_pskip=1 / chroma_qp_offset=-3 / threads=34 / lookahead_threads=5 / sliced_threads=0 / nr=150 / decimate=1 / interlaced=0 / bluray_compat=0 / constrained_intra=0 / bframes=8 / b_pyramid=2 / b_adapt=2 / b_bias=0 / direct=3 / weightb=1 / open_gop=0 / weightp=2 / keyint=120 / keyint_min=61 / scenecut=0 / intra_refresh=0 / rc_lookahead=120 / rc=crf / mbtree=1 / crf=18.0 / qcomp=0.60 / qpmin=0 / qpmax=69 / qpstep=4 / vbv_maxrate=15000 / vbv_bufsize=31250 / crf_max=0.0 / nal_hrd=vbr / filler=0 / ip_ratio=1.40 / aq=3:1.00
Language : English
Default : Yes
Forced : Yes
Color range : Limited
Color primaries : BT.709
Transfer characteristics : BT.709
Matrix coefficients : BT.709

Audio #1
ID : 2
Format : E-AC-3
Format/Info : Enhanced AC-3
Commercial name : Dolby Digital Plus
Codec ID : A_EAC3
Duration : 1 h 30 min
Bit rate mode : Constant
Bit rate : 640 kb/s
Channel(s) : 2 channels
Channel layout : L R
Sampling rate : 48.0 kHz
Frame rate : 31.250 FPS (1536 SPF)
Compression mode : Lossy
Stream size : 416 MiB (7%)
Title : AniUA
Language : Ukrainian
Service kind : Complete Main
Default : Yes
Forced : Yes

Audio #2
ID : 3
Format : E-AC-3
Format/Info : Enhanced AC-3
Commercial name : Dolby Digital Plus
Codec ID : A_EAC3
Duration : 1 h 30 min
Bit rate mode : Constant
Bit rate : 640 kb/s
Channel(s) : 6 channels
Channel layout : L R C LFE Ls Rs
Sampling rate : 48.0 kHz
Frame rate : 31.250 FPS (1536 SPF)
Compression mode : Lossy
Stream size : 416 MiB (7%)
Title : Original
Language : English
Service kind : Complete Main
Default : No
Forced : No

Text #1
ID : 4
Format : UTF-8
Codec ID : S_TEXT/UTF8
Codec ID/Info : UTF-8 Plain Text
Duration : 1 h 22 min
Bit rate : 65 b/s
Count of elements : 833
Stream size : 39.4 KiB (0%)
Title : AniUA
Language : Ukrainian
Default : No
Forced : No

Text #2
ID : 5
Format : UTF-8
Codec ID : S_TEXT/UTF8
Codec ID/Info : UTF-8 Plain Text
Duration : 1 h 26 min
Bit rate : 44 b/s
Count of elements : 1048
Stream size : 27.8 KiB (0%)
Title : SDH
Language : English
Default : No
Forced : No

Menu
00:00:00.000 : en:Scene 1
00:04:15.000 : en:Scene 2
00:07:04.000 : en:Scene 3
00:09:49.000 : en:Scene 4
00:12:46.000 : en:Scene 5
00:15:25.000 : en:Scene 6
00:18:57.000 : en:Scene 7
00:21:10.000 : en:Scene 8
00:26:31.000 : en:Scene 9
00:27:50.000 : en:Scene 10
00:31:00.000 : en:Scene 11
00:32:08.000 : en:Scene 12
00:33:57.000 : en:Scene 13
00:36:49.000 : en:Scene 14
00:39:20.000 : en:Scene 15
00:41:11.000 : en:Scene 16
00:45:02.000 : en:Scene 17
00:48:23.000 : en:Scene 18
00:50:02.000 : en:Scene 19
00:52:32.000 : en:Scene 20
00:54:50.000 : en:Scene 21
00:56:56.000 : en:Scene 22
00:58:37.000 : en:Scene 23
01:00:24.000 : en:Scene 24
01:02:01.000 : en:Scene 25
01:05:32.000 : en:Scene 26
01:06:57.000 : en:Scene 27
01:09:56.000 : en:Scene 28
01:14:17.000 : en:Scene 29
01:15:13.000 : en:Scene 30
01:17:48.000 : en:Scene 31
01:21:31.000 : en:Scene 32
01:25:56.000 : en:Scene 33


Авторський реліз (завантажувати можна без реєстрації)
 Трекер:    Зареєстрований   

Завантажити / скачати фільм українською



відео для новачків



 Зареєстрований:   2020-09-08 19:25
 Розмір:   5.85 GB 
 Оцінка фільму:   8.7/10 (Голосів: 9)
   
reiser44 
Поважний учасник


З нами з: 12.11.14
Востаннє: 28.09.20
Повідомлень: 169

2020-09-14 01:15  
Фільми в HD?
bot 
робот


З нами з: 30.09.07
Востаннє: 26.05.05
Повідомлень: 25640

2020-09-14 01:18  
Тему перенесено з Фільми до форуму Фільми в HD


Arch Enemy

Arch Enemy 
VIP


З нами з: 30.08.12
Востаннє: 25.09.20
Повідомлень: 1909

2020-09-14 01:20  
reiser44
дякую, що помітили.
переніс.

-_-B_Е_N_D_E_R-_- 
VIP


З нами з: 04.03.20
Востаннє: 28.09.20
Повідомлень: 575

2020-09-14 01:47  
Arch Enemy написано:
кодек: e-

Я вибачаюся панове, але мені цікаво чим це закодовано? Є якась програмуліна під вінду? Чи це Ви на мак розжилися?

Arch Enemy 
VIP


З нами з: 30.08.12
Востаннє: 25.09.20
Повідомлень: 1909

2020-09-14 11:27  
-_-B_Е_N_D_E_R-_- написано:
Я вибачаюся панове, але мені цікаво чим це закодовано? Є якась програмуліна під вінду? Чи це Ви на мак розжилися?

це все Магія)))

Бойовий Спелл: "Якась програмуліна"

Ваш часовий пояс: GMT + 2 Години

Нова тема   Відповісти