Мулан / Mulan (2020) UHD 2160p 4K HDR H.265 2xUkr/Eng | Sub Ukr/Eng

Нові коментарі

Нова тема   Відповісти
Автор Повідомлення
Neo_Men 
Свій


З нами з: 21.11.15
Востаннє: 27.10.20
Повідомлень: 139

2020-09-08 18:23  
Мулан / Mulan (2020) UHD 2160p 4K HDR H.265 2xUkr/Eng | Sub Ukr/Eng

Мулан / Mulan (2020) UHD 2160p 4K HDR H.265 2xUkr/Eng | Sub Ukr/Eng


Жанр: драма, пригоди, сімейний, фентезі, екшн
Країна: США, Канада, Гонконг



Кінокомпанія: Walt Disney Pictures
Режисер: Нікі Каро
Актори: Іфей Лю, Донні Єн, Ґун Лі, Джет Лі, Джейсон Скотт Лі, Йосон Ан, Ма Ці, Розалінд Чао, Рон Юань, Джан Ю

Сюжет:
Для Китайської імперії настали темні часи. Із півночі на країну наступає грізне військо нещадних загарбників, які жадають крові невинних людей. Імператор видав указ, що кожна сім'я повинна дати одного чоловіка для захисту країни. Хуа завжди був хоробрим воїном, але зараз на старості років, його долають хвороби. Але він єдиний чоловік у своїй родині, Бог нагородив його двома дочками. Мулан, старша з них, завжди відрізнялася від своїх одноліток. Рішуча, смілива та спритна дівчина не може відпустити батька на вірну смерть – вона сама піде до війська, прикинувшись хлопцем. Це буде складний шлях для дівчини, який зробить її одним із найбільших воїнів у історії Китаю.


Тривалість: 01:55:08
Якість: 2160p
Відео:
кодек: H.265
розмір кадру: 3840 x 1608
бітрейт: 15,9 Mб/с

Аудіо # 1:
мова: українська
переклад: професійний дубльований
кодек: 2.0
бітрейт: 192 кб/с

Аудіо # 2:
мова: українська
переклад: одноголосий закадровий | В одне рило
кодек: 2.0
бітрейт: 192 кб/с

Аудіо # 3:
мова: англійська
переклад: оригінал
кодек: E- JOC 5.1
бітрейт: 768 кб/с

Субтитри # 1:
мова: українська
тип: програмні (м'які)
формат: *.srt

Субтитри # 2:
мова: англійська
тип: програмні (м'які)
формат: *.srt

Дякую eneyida.tv за дубльовану доріжку
Info
Код:
General
Unique ID                                : 239630925430410905642481848821853336051 (0xB4473CCC1050309A978C2AD3EC6A31F3)
Complete name                            : Mulan (2020) 2160p HDR [Ukr_Eng] [Hurtom].
Format                                   :
Format version                           : Version 4
File size                                : 13.7 GiB
Duration                                 : 1 h 55 min
Overall bit rate                         : 17.1 Mb/s
Movie name                               : Мулан / Mulan (2020)
Encoded date                             : UTC 2020-10-13 14:20:46
Writing application                      : v8.3.0 ('Over the Horizon') 64bit
Writing library                          : libebml v1.3.1 + v1.4.2
Cover                                    : Yes
Attachments                              : Cover.jpg

Video
ID                                       : 1
Format                                   : HEVC
Format/Info                              : High Efficiency Video Coding
Format profile                           : Main [email protected]@High
Codec ID                                 : V_MPEGH/ISO/HEVC
Duration                                 : 1 h 55 min
Bit rate                                 : 15.9 Mb/s
Width                                    : 3 840 pixels
Height                                   : 1 608 pixels
Display aspect ratio                     : 2.40:1
Frame rate mode                          : Constant
Frame rate                               : 23.976 (24000/1001) FPS
Color space                              : YUV
Chroma subsampling                       : 4:2:0
Bit depth                                : 10 bits
Bits/(Pixel*Frame)                       : 0.108
Stream size                              : 12.8 GiB (93%)
Language                                 : English
Default                                  : Yes
Forced                                   : No
Color range                              : Limited
Color primaries                          : BT.2020
Transfer characteristics                 : PQ
Matrix coefficients                      : BT.2020 non-constant

Audio #1
ID                                       : 2
Format                                   : AC-3
Format/Info                              : Audio Coding 3
Commercial name                          : Dolby Digital
Codec ID                                 : A_AC3
Duration                                 : 1 h 55 min
Bit rate mode                            : Constant
Bit rate                                 : 192 kb/s
Channel(s)                               : 2 channels
Channel layout                           : L R
Sampling rate                            : 48.0 kHz
Frame rate                               : 31.250 FPS (1536 SPF)
Bit depth                                : 16 bits
Compression mode                         : Lossy
Stream size                              : 158 MiB (1%)
Title                                    : DUB [Line]
Language                                 : Ukrainian
Service kind                             : Complete Main
Default                                  : Yes
Forced                                   : No

Audio #2
ID                                       : 3
Format                                   : AC-3
Format/Info                              : Audio Coding 3
Commercial name                          : Dolby Digital
Codec ID                                 : A_AC3
Duration                                 : 1 h 55 min
Bit rate mode                            : Constant
Bit rate                                 : 192 kb/s
Channel(s)                               : 2 channels
Channel layout                           : L R
Sampling rate                            : 48.0 kHz
Frame rate                               : 31.250 FPS (1536 SPF)
Bit depth                                : 16 bits
Compression mode                         : Lossy
Stream size                              : 158 MiB (1%)
Title                                    : В одне рило
Language                                 : Ukrainian
Service kind                             : Complete Main
Default                                  : No
Forced                                   : No

Audio #3
ID                                       : 4
Format                                   : E-AC-3 JOC
Format/Info                              : Enhanced AC-3 with Joint Object Coding
Commercial name                          : Dolby Digital Plus with Dolby Atmos
Codec ID                                 : A_EAC3
Duration                                 : 1 h 55 min
Bit rate mode                            : Constant
Bit rate                                 : 768 kb/s
Channel(s)                               : 6 channels
Channel layout                           : L R C LFE Ls Rs
Sampling rate                            : 48.0 kHz
Frame rate                               : 31.250 FPS (1536 SPF)
Compression mode                         : Lossy
Stream size                              : 633 MiB (4%)
Language                                 : English
Service kind                             : Complete Main
Default                                  : No
Forced                                   : No
Complexity index                         : 16
Number of dynamic objects                : 15
Bed channel count                        : 1 channel
Bed channel configuration                : LFE

Text #1
ID                                       : 5
Format                                   : UTF-8
Codec ID                                 : S_TEXT/UTF8
Codec ID/Info                            : UTF-8 Plain Text
Duration                                 : 1 h 43 min
Bit rate                                 : 50 b/s
Count of elements                        : 848
Stream size                              : 38.2 KiB (0%)
Title                                    : Full
Language                                 : Ukrainian
Default                                  : No
Forced                                   : No

Text #2
ID                                       : 6
Format                                   : UTF-8
Codec ID                                 : S_TEXT/UTF8
Codec ID/Info                            : UTF-8 Plain Text
Duration                                 : 1 h 50 min
Bit rate                                 : 35 b/s
Count of elements                        : 1150
Stream size                              : 28.5 KiB (0%)
Title                                    : Full
Language                                 : English
Default                                  : No
Forced                                   : No

Text #3
ID                                       : 7
Format                                   : UTF-8
Codec ID                                 : S_TEXT/UTF8
Codec ID/Info                            : UTF-8 Plain Text
Duration                                 : 1 h 50 min
Bit rate                                 : 52 b/s
Count of elements                        : 1150
Stream size                              : 42.3 KiB (0%)
Title                                    : Full [Colored]
Language                                 : English
Default                                  : No
Forced                                   : No
Скріншоти
Джерело:
Особиста оцінка: 0 - не дивився


Авторський реліз (завантажувати можна без реєстрації)
 Трекер:    Зареєстрований   

Завантажити / скачати фільм українською



відео для новачків



 Зареєстрований:   2020-10-13 16:26
 Розмір:   13.74 GB 
 Оцінка фільму:   8.2/10 (Голосів: 17)
   
Інші релізи
   Мулан / Mulan (2020) 1080p 2xUkr/Eng | Sub Ukr/Eng Neo_Men  39 / 0   15.64 GB   2020-10-13 16:55 
   Мулан / Mulan (2020) 720p 2xUkr/Eng | Sub Ukr/Eng igor911  32 / 0   4.24 GB   2020-10-13 15:44 
   Мулан / Mulan (2020) AVC 2xUkr/Eng | Sub Ukr/Eng eneyida.tv  89 / 0   2.22 GB   2020-10-13 15:17 
   Мулан / Mulan (2020) Ukr/Eng | Sub Ukr/Eng Done56  82 / 0   1.61 GB   2020-09-08 15:51 
   Мулан / Mulan (2020) Eng | sub Ukr killer2015  14 / 0   1.46 GB   2020-09-06 13:37 
Done56 
VIP


З нами з: 23.11.15
Востаннє: 27.10.20
Повідомлень: 522

2020-09-08 18:57  
В такій якості хромакей очі виїсть)))))
star-space 
Частий відвідувач


З нами з: 22.12.17
Востаннє: 27.10.20
Повідомлень: 42

2020-09-08 19:19  
Дивлюсь на скріни, звичайні сочні скріни. Де ви там HDR знайшли?
Mykele 
Новенький


З нами з: 08.09.16
Востаннє: 26.10.20
Повідомлень: 15

2020-09-09 17:59  
star-space
Є можливість робити їх без втрати кольору.

volee 
Свій


З нами з: 19.02.09
Востаннє: 24.10.20
Повідомлень: 58

2020-09-25 19:38  
Дужее сподобалась озвучка.
Neo_Men 
Свій


З нами з: 21.11.15
Востаннє: 27.10.20
Повідомлень: 139

2020-10-13 16:28  
13.10.2020 Додано дубльовану доріжку
tilda4334 
VIP


З нами з: 15.08.14
Востаннє: 27.10.20
Повідомлень: 1117

2020-10-13 16:33  
Neo_Men написано:
переклад

озвучення

Ваш часовий пояс: GMT + 2 Години

Нова тема   Відповісти