По той бік гри (Сезон 1) / Todo por el juego (Season 1) (2018) 720p Ukr/Spa

Нові коментарі

Нова тема   Відповісти
Автор Повідомлення
Anonymous 







2020-09-08 11:09  
По той бік гри (Сезон 1) / Todo por el juego (Season 1) (2018) 720p Ukr/Spa


Жанр: Трилер, драма, спорт
Країна: Іспанія


Кінокомпанія / телеканал: Mediapro, DirectTV / OnDirecTV
Режисер: Даніель Кальпарсоро
Актори: Роберто Енрікес, Патрісія Віко, Педро Касабланка, Маріан Альварес, Марія Молінс, Марія де Наті, Андрес Гертрудікс, Хоакін Абад та інші

Сюжет:
Це яскрава екранізація роману «Футбол не такий», написаного колишнім президентом іспанської Ла Ліги Хав'єром Тебасом і Педро Торренсом.

Серіал присвячений бізнесменові Маріано Ідальго, який керує скромним клубом «Депортіво Леонес». Команда виступає в другому дивізіоні і деградує.
А Ідальго намагається піти від банкрутства.

Цей виклик розкриває перед нами інший бік коханої мільйонами гри.


Тривалість: 1 серія: 44:00 (цілком серій: 8)
Назви серій
1. Los Cruzados / Хрестоносці
2. Todos esconden algo / Усі щось приховують
3. Sangre nueva / Свіжа кров
4. Tus errores me salpican / Твої помилки шкодять мені
5. La frase adecuada / Правильні слова
6. Déjate el pelo largo / Залиш довге волосся
7. No sabéis dónde os habéis metido / Ви не знаєте куди влізли
8. Quiero ver como te conviertes en mí / Хочу побачити, як ти перетворишся на мене
Якість:
Відео:
кодек:
розмір кадру: 1280 х 720
бітрейт: ~1800 кб/с

Аудіо # 1:
мова: українська
переклад: багатоголосий закадровий
кодек: 2.0
бітрейт: 192 кб/с

Аудіо # 2:
мова: англійська
переклад: оригінал
кодек: 5.1
бітрейт: 448 кб/с

Переклад і озвучення виконано:
Info
General
Unique ID : 288233101395828118230332404283239471971 (0xD8D7AD14822409F9F83C88A02DE69B63)
Complete name : F:\Todo.por.el.juego.s01.HDTV.720p.Ukr.Spa\Todo.por.el.juego.s01e01.HDTV.720p.Ukr.Spa.
Format :
Format version : Version 4 / Version 2
File size : 751 MiB
Duration : 42 min 59 s
Overall bit rate mode : Variable
Overall bit rate : 2 441 kb/s
Movie name : [email protected]
Encoded date : UTC 2020-09-07 23:17:29
Writing application : v31.0.0 ('Dolores In A Shoestand') 64-bit
Writing library : libebml v1.3.6 + v1.4.9

Video
ID : 1
Format : AVC
Format/Info : Advanced Video Codec
Format profile : [email protected]
Format settings : CABAC / 4 Ref Frames
Format settings, CABAC : Yes
Format settings, ReFrames : 4 frames
Codec ID : V_MPEG4/ISO/AVC
Duration : 42 min 59 s
Bit rate mode : Variable
Bit rate : 1 799 kb/s
Maximum bit rate : 50.0 Mb/s
Width : 1 280 pixels
Height : 720 pixels
Display aspect ratio : 16:9
Frame rate mode : Constant
Frame rate : 25.000 FPS
Color space : YUV
Chroma subsampling : 4:2:0
Bit depth : 8 bits
Scan type : Progressive
Bits/(Pixel*Frame) : 0.078
Stream size : 553 MiB (74%)
Title : [email protected]
Writing library : core 155 r2901 7d0ff22
Encoding settings : cabac=1 / ref=4 / deblock=1:0:0 / analyse=0x3:0x133 / me=hex / subme=7 / psy=1 / psy_rd=0.40:0.00 / mixed_ref=1 / me_range=16 / chroma_me=1 / trellis=1 / 8x8dct=1 / cqm=0 / deadzone=21,11 / fast_pskip=0 / chroma_qp_offset=-2 / threads=18 / lookahead_threads=3 / sliced_threads=0 / nr=0 / decimate=1 / interlaced=0 / bluray_compat=0 / constrained_intra=0 / bframes=3 / b_pyramid=2 / b_adapt=1 / b_bias=0 / direct=3 / weightb=1 / open_gop=0 / weightp=2 / keyint=250 / keyint_min=25 / scenecut=40 / intra_refresh=0 / rc_lookahead=40 / rc=2pass / mbtree=1 / bitrate=1799 / ratetol=1.0 / qcomp=0.60 / qpmin=0 / qpmax=69 / qpstep=4 / cplxblur=20.0 / qblur=0.5 / vbv_maxrate=50000 / vbv_bufsize=62500 / nal_hrd=vbr / filler=0 / ip_ratio=1.40 / aq=1:1.00
Language : Spanish
Default : Yes
Forced : No
Color range : Limited
Color primaries : BT.709
Transfer characteristics : BT.709
Matrix coefficients : BT.709

Audio #1
ID : 2
Format : AC-3
Format/Info : Audio Coding 3
Commercial name : Dolby Digital
Codec ID : A_AC3
Duration : 42 min 58 s
Bit rate mode : Constant
Bit rate : 192 kb/s
Channel(s) : 2 channels
Channel positions : Front: L R
Sampling rate : 48.0 kHz
Frame rate : 31.250 FPS (1536 SPF)
Bit depth : 16 bits
Compression mode : Lossy
Stream size : 59.0 MiB (8%)
Title : XSport [MVO]
Language : Ukrainian
Service kind : Complete Main
Default : Yes
Forced : No

Audio #2
ID : 3
Format : AC-3
Format/Info : Audio Coding 3
Commercial name : Dolby Digital
Codec ID : A_AC3
Duration : 42 min 58 s
Bit rate mode : Constant
Bit rate : 448 kb/s
Channel(s) : 6 channels
Channel positions : Front: L C R, Side: L R, LFE
Sampling rate : 48.0 kHz
Frame rate : 31.250 FPS (1536 SPF)
Bit depth : 16 bits
Compression mode : Lossy
Delay relative to video : 28 ms
Stream size : 138 MiB (18%)
Language : Spanish
Service kind : Complete Main
Default : No
Forced : No
Скріншоти:

Джерело:
Особиста оцінка: 0 - не дивився, але планую


Бронзовий реліз (на рейтинг впливає 75% завантаженого)
 Трекер:    Зареєстрований   

Завантажити / скачати серіал українською



відео для новачків



 Зареєстрований:   2020-09-08 11:09
 Розмір:   6.03 GB 
 Оцінка серіалу:   10/10 (Голосів: 1)
   
PolarRoman 
Новенький


З нами з: 06.01.17
Востаннє: 02.12.20
Повідомлень: 2

2020-09-16 14:25  
Спасибі! Очікую роздачі другого сезону) Wide grin
Ваш часовий пояс: GMT + 2 Години

Нова тема   Відповісти