Зависнути у Палм-Спрінгз / Palm Springs (2020) 1080p Ukr/Eng | Sub Eng

Нові коментарі

Нова тема   Відповісти
Автор Повідомлення
Anonymous 







2020-09-08 11:41  
Зависнути у Палм-Спрінгз / Palm Springs (2020) 1080p Ukr/Eng | Sub Eng

Зависнути у Палм-Спрінгз / Palm Springs (2020) 1080p Ukr/Eng | Sub Eng


Жанр: комедія, романтичний, фентезі
Країна: США



Кінокомпанія: Hulu
Режисер: Макс Барбаков
Актори: Енді Семберг, Крістін Міліоті, Дж.К. Сіммонс, Тайлер Хеклін, Пітер Галлахер, Дейл Діккі, Каміла Мендес, Жаклін Обрадорс, Мередіт Хагнер, Кріс Пенг

Сюжет:
Зустрівшись на весіллі у Палм-Спрінгз, Найлз та Сара раптом опиняються у петлі часу. Кожен новий день вони змушені слухати ті ж самі весільні тости та пісні... Проте є й переваги: "День Бабака" дає можливість прожити безкінечну кількість життів а, отже, реалізувати найбільш шалені ідеї і мрії. Приготуйтесь, буде гаряче!


Тривалість: 01:29:59
Якість: 1080p
Відео:
кодек:
розмір кадру: 1920x1080
бітрейт: 4422 кб/с

Аудіо # 1:
мова: українська
переклад: професійний дубльований
кодек: 2.0
бітрейт: 192 кб/с

Аудіо # 2:
мова: англійська
переклад: оригінал
кодек: E- 5.1
бітрейт: 256 кб/с

Субтитри:
мова: англійська
тип: програмні (м'які)
формат: *.srt
Info
Код:
General
Complete name                            : Palm Springs (2020) 1080p [Ukr_Eng] [Hurtom].
Format                                   :
Format version                           : Version 4
File size                                : 3.06 GiB
Duration                                 : 1 h 29 min
Overall bit rate                         : 4 872 kb/s
Movie name                               : Зависнути у Палм-Спрінгз / Palm Springs (2020)
Encoded date                             : UTC 2020-09-08 08:07:33
Writing application                      : v30.1.0 ('Forever And More') 64-bit
Writing library                          : libebml v1.3.6 + v1.4.9
Cover                                    : Yes
Attachments                              : cover.jpg

Video
ID                                       : 1
Format                                   : AVC
Format/Info                              : Advanced Video Codec
Format profile                           : [email protected]
Format settings                          : CABAC / 4 Ref Frames
Format settings, CABAC                   : Yes
Format settings, RefFrames               : 4 frames
Codec ID                                 : V_MPEG4/ISO/AVC
Duration                                 : 1 h 29 min
Bit rate                                 : 4 422 kb/s
Width                                    : 1 920 pixels
Height                                   : 1 080 pixels
Display aspect ratio                     : 16:9
Frame rate mode                          : Constant
Frame rate                               : 24.000 FPS
Color space                              : YUV
Chroma subsampling                       : 4:2:0
Bit depth                                : 8 bits
Scan type                                : Progressive
Bits/(Pixel*Frame)                       : 0.089
Stream size                              : 2.78 GiB (91%)
Language                                 : English
Default                                  : Yes
Forced                                   : No

Audio #1
ID                                       : 2
Format                                   : AC-3
Format/Info                              : Audio Coding 3
Commercial name                          : Dolby Digital
Codec ID                                 : A_AC3
Duration                                 : 1 h 29 min
Bit rate mode                            : Constant
Bit rate                                 : 192 kb/s
Channel(s)                               : 2 channels
Channel layout                           : L R
Sampling rate                            : 48.0 kHz
Frame rate                               : 31.250 FPS (1536 SPF)
Bit depth                                : 16 bits
Compression mode                         : Lossy
Stream size                              : 124 MiB (4%)
Title                                    : 2.0 | 192 | Line
Language                                 : Ukrainian
Service kind                             : Complete Main
Default                                  : Yes
Forced                                   : No

Audio #2
ID                                       : 3
Format                                   : E-AC-3
Format/Info                              : Enhanced AC-3
Commercial name                          : Dolby Digital Plus
Codec ID                                 : A_EAC3
Duration                                 : 1 h 29 min
Bit rate mode                            : Constant
Bit rate                                 : 256 kb/s
Channel(s)                               : 6 channels
Channel layout                           : L R C LFE Ls Rs
Sampling rate                            : 48.0 kHz
Frame rate                               : 31.250 FPS (1536 SPF)
Compression mode                         : Lossy
Stream size                              : 165 MiB (5%)
Title                                    : E- 5.1 | 256
Language                                 : English
Service kind                             : Complete Main
Default                                  : No
Forced                                   : No

Text
ID                                       : 4
Format                                   : UTF-8
Codec ID                                 : S_TEXT/UTF8
Codec ID/Info                            : UTF-8 Plain Text
Duration                                 : 1 h 29 min
Bit rate                                 : 76 b/s
Count of elements                        : 1802
Stream size                              : 50.1 KiB (0%)
Language                                 : English
Default                                  : No
Forced                                   : No
Скріншоти


Джерело: & eneyida.tv
Особиста оцінка: 0 - не дивився


 Трекер:    Зареєстрований   

Завантажити / скачати фільм українською



відео для новачків



 Зареєстрований:   2020-09-08 13:40
 Розмір:   3.06 GB 
 Оцінка фільму:   9.1/10 (Голосів: 33)
   
lazey 
Новенький


З нами з: 06.03.09
Востаннє: 25.09.20
Повідомлень: 9

2020-09-18 18:10  
Найкращій фільм цього року! І безумовно найкраща реалізація time-loop 10/10

Рекомендую дивитися в оригіналі, емоції Крістін варто почути без посередників

Bender Rodrigez 
Новенький


З нами з: 12.03.14
Востаннє: 29.09.20
Повідомлень: 23

2020-09-21 14:03  
Чудовий фільм
Uwe 
Новенький


З нами з: 04.09.20
Востаннє: 30.09.20
Повідомлень: 10

2020-09-24 22:35  
Приємний і легкий фільм, а акторка просто неймовірно красива)
Ваш часовий пояс: GMT + 2 Години

Нова тема   Відповісти