Мистецтво самозахисту / The Art of Self-Defense (2019) Remux 1080p Ukr/Eng | Sub Ukr/Eng

Нові коментарі

Нова тема   Відповісти
Автор Повідомлення
Anonymous 







2020-09-08 10:35  
Мистецтво самозахисту / The Art of Self-Defense (2019) Remux 1080p Ukr/Eng | Sub Ukr/Eng




Жанр: комедія, пригодницький, драма, кримінальний, трилер
Країна: США



Кінокомпанія: End Cue
Режисер: Райлі Стернс
Актори: Джессі Айзенберґ, Алессандро Нівола, Імоджен Путс, Ліленд Орсер, Девід Зеллнерта інші

Сюжет:
Сором'язливий 34-річний бухгалтер, з жіночним ім'ям Кейсі Девіс, якось вночі відправляється за собачим кормом. По дорозі на нього нападають невідомі на мотоциклах. Кейсі задумав купити пістолет, і поки папери на вогнепальну зброю проходять схвалення, вирішує записатися в секцію карате. Там нерішучого хлопця радо вітає брутальний сенсей, який обіцяє, що спорт змінить його життя.


Тривалість: 01:44:19
Якість: Remux 1080p
Відео:
кодек:
розмір кадру: 1920x1080
бітрейт: 33400 кб/с

Аудіо # 1:
мова: українська
переклад: багатоголосий закадровий
кодек: 2.0 (стерео)
бітрейт: 192 кб/с

Аудіо # 2:
мова: англійська
переклад: оригінал
кодек: 5.1
бітрейт: 448 кб/с

Аудіо # 3:
мова: англійська
переклад: оригінал
кодек: -HD MA 5.1
бітрейт: 3203 кб/с

Субтитри # (Full):
мова: українська
тип: програмні (м'які)
формат: *.srt
переклад: авторський від Hardyckson

Субтитри # 2-3 (Full, SDH):
мова: англійська
тип: програмні (м'які)
формат: *.srt

Info
Код:
General
Complete name                            : The Art of Self-Defense (2019) Remux 1080p [ukr, eng] [Hurtom].
Format                                   :
Format version                           : Version 4
File size                                : 27.1 GiB
Duration                                 : 1 h 44 min
Overall bit rate mode                    : Variable
Overall bit rate                         : 37.2 Mb/s
Movie name                               : Мистецтво самозахисту / The Art of Self-Defense (2019)
Encoded date                             : UTC 2020-09-07 18:11:46
Writing application                      : v30.1.0 ('Forever And More') 64-bit
Writing library                          : libebml v1.3.6 + v1.4.9
Cover                                    : Yes
Attachments                              : cover.jpg

Video
ID                                       : 1
Format                                   : AVC
Format/Info                              : Advanced Video Codec
Format profile                           : [email protected]
Format settings                          : CABAC / 4 Ref Frames
Format settings, CABAC                   : Yes
Format settings, RefFrames               : 4 frames
Format settings, GOP                     : M=3, N=12
Codec ID                                 : V_MPEG4/ISO/AVC
Duration                                 : 1 h 44 min
Bit rate mode                            : Variable
Bit rate                                 : 33.4 Mb/s
Maximum bit rate                         : 36.0 Mb/s
Width                                    : 1 920 pixels
Height                                   : 1 080 pixels
Display aspect ratio                     : 16:9
Frame rate mode                          : Constant
Frame rate                               : 23.976 (24000/1001) FPS
Color space                              : YUV
Chroma subsampling                       : 4:2:0
Bit depth                                : 8 bits
Scan type                                : Progressive
Bits/(Pixel*Frame)                       : 0.671
Stream size                              : 24.3 GiB (90%)
Language                                 : English
Default                                  : Yes
Forced                                   : No

Audio #1
ID                                       : 2
Format                                   : AC-3
Format/Info                              : Audio Coding 3
Commercial name                          : Dolby Digital
Codec ID                                 : A_AC3
Duration                                 : 1 h 44 min
Bit rate mode                            : Constant
Bit rate                                 : 192 kb/s
Channel(s)                               : 2 channels
Channel layout                           : L R
Sampling rate                            : 48.0 kHz
Frame rate                               : 31.250 FPS (1536 SPF)
Bit depth                                : 16 bits
Compression mode                         : Lossy
Stream size                              : 143 MiB (1%)
Title                                    : 2.0 | 192
Language                                 : Ukrainian
Service kind                             : Complete Main
Default                                  : Yes
Forced                                   : No

Audio #2
ID                                       : 3
Format                                   : AC-3
Format/Info                              : Audio Coding 3
Commercial name                          : Dolby Digital
Codec ID                                 : A_AC3
Duration                                 : 1 h 44 min
Bit rate mode                            : Constant
Bit rate                                 : 448 kb/s
Channel(s)                               : 6 channels
Channel layout                           : L R C LFE Ls Rs
Sampling rate                            : 48.0 kHz
Frame rate                               : 31.250 FPS (1536 SPF)
Bit depth                                : 16 bits
Compression mode                         : Lossy
Stream size                              : 334 MiB (1%)
Title                                    : 5.1 | 448
Language                                 : English
Service kind                             : Complete Main
Default                                  : No
Forced                                   : No

Audio #3
ID                                       : 4
Format                                   : XLL
Format/Info                              : Digital Theater Systems
Commercial name                          : -HD Master Audio
Codec ID                                 : A_DTS
Duration                                 : 1 h 44 min
Bit rate mode                            : Variable
Bit rate                                 : 3 203 kb/s
Channel(s)                               : 6 channels
Channel layout                           : C L R Ls Rs LFE
Sampling rate                            : 48.0 kHz
Frame rate                               : 93.750 FPS (512 SPF)
Bit depth                                : 24 bits
Compression mode                         : Lossless
Stream size                              : 2.33 GiB (9%)
Title                                    : -HD MA 5.1 | 3201
Language                                 : English
Default                                  : No
Forced                                   : No

Text #1
ID                                       : 5
Format                                   : UTF-8
Codec ID                                 : S_TEXT/UTF8
Codec ID/Info                            : UTF-8 Plain Text
Duration                                 : 1 h 39 min
Bit rate                                 : 85 b/s
Count of elements                        : 1007
Stream size                              : 62.3 KiB (0%)
Title                                    : Full
Language                                 : Ukrainian
Default                                  : Yes
Forced                                   : No

Text #2
ID                                       : 6
Format                                   : UTF-8
Codec ID                                 : S_TEXT/UTF8
Codec ID/Info                            : UTF-8 Plain Text
Duration                                 : 1 h 39 min
Bit rate                                 : 53 b/s
Count of elements                        : 1010
Stream size                              : 38.7 KiB (0%)
Title                                    : Full
Language                                 : English
Default                                  : No
Forced                                   : No

Text #3
ID                                       : 7
Format                                   : UTF-8
Codec ID                                 : S_TEXT/UTF8
Codec ID/Info                            : UTF-8 Plain Text
Duration                                 : 1 h 39 min
Bit rate                                 : 57 b/s
Count of elements                        : 1161
Stream size                              : 41.7 KiB (0%)
Title                                    : SDH
Language                                 : English
Default                                  : No
Forced                                   : No

Menu
00:00:00.000                             : :Chapter 01
00:05:58.107                             : :Chapter 02
00:11:27.478                             : :Chapter 03
00:16:24.900                             : :Chapter 04
00:22:05.574                             : :Chapter 05
00:27:34.861                             : :Chapter 06
00:30:49.264                             : :Chapter 07
00:37:58.526                             : :Chapter 08
00:43:38.616                             : :Chapter 09
00:47:33.058                             : :Chapter 10
00:51:34.925                             : :Chapter 11
00:57:38.955                             : :Chapter 12
01:02:57.690                             : :Chapter 13
01:09:50.311                             : :Chapter 14
01:16:10.232                             : :Chapter 15
01:20:53.682                             : :Chapter 16
01:24:42.994                             : :Chapter 17
01:30:55.450                             : :Chapter 18
01:35:38.858                             : :Chapter 19
01:39:41.350                             : :Chapter 20






Джерело:
Особиста оцінка: 0 - не дивився


Золотий реліз (завантажене не впливає на рейтинг)
 Трекер:    Зареєстрований   

Завантажити / скачати фільм українською



відео для новачків



 Зареєстрований:   2020-09-08 10:35
 Розмір:   27.11 GB 
 Оцінка фільму:   9.3/10 (Голосів: 6)
   
Ваш часовий пояс: GMT + 2 Години

Нова тема   Відповісти