Горили в тумані: Історія Дайан Фоссі / Gorillas in the Mist: The Story of Dian Fossey (1988) 1080p Ukr/Eng | sub Eng

Нові коментарі

Нова тема   Відповісти
Автор Повідомлення
Anonymous 







2020-09-07 20:25  
Горили в тумані: Історія Дайан Фоссі / Gorillas in the Mist: The Story of Dian Fossey (1988) 1080p Ukr/Eng | sub Eng

Горили в тумані: Історія Дайан Фоссі / Gorillas in the Mist: The Story of Dian Fossey (1988) 1080p Ukr/Eng | sub Eng
Blu-ray




Жанр: драма, біографічний
Країна: США



Кінокомпанія: Universal Pictures, Warner Bros
Режисер: Майкл Ептед
Актори: Сігурні Вівер, Брайан Браун, Джулі Харріс, Ієн Глен, Гордон Мастен та інші

Сюжет:
Автобіографічна картина про Дайан Фоссі, що обрала мандрівне життя в дикій природі Центральної Африки заради вивчення й врятування зникаючих тварин. Неймовірної краси ландшафти, ризик та небезпеки, що чекають на кожному кроці — усе заради мрії та твердої життєвої позиції. Самотужки Дайан присвячує себе врятуванню гірських горил, які зазнали неймовірної людської жорстокості.


Тривалість: 02:09:18
Якість:
Відео:
кодек:
розмір кадру: 1920 х 1040
бітрейт: 10,6 Мб/с

Аудіо # 1:
мова: українська
переклад: багатоголосий закадровий
кодек: 2.0
бітрейт: 192 кб/с

Аудіо # 2:
мова: англійська
переклад: оригінал
кодек: 5.1
бітрейт: 1509 кб/с

Джерело озвучення:
звук взято з AVC релізу

Субтитри:
мова: англійська (Full, SDH)
тип: програмні (м'які)
формат: *.srt
Info
Код:
General
Unique ID                                : 319863328571431090152153198781683024069 (0xF0A36FAEC826BA4D748AD36A20DD40C5)
Complete name                            : Gorillas in the Mist. The Story of Dian Fossey (1988) 1080p [Ukr_Eng] [Hurtom].
Format                                   :
Format version                           : Version 4
File size                                : 11.1 GiB
Duration                                 : 2 h 9 min
Overall bit rate                         : 12.3 Mb/s
Movie name                               : Горили в тумані: Історія Дайан Фоссі (1988)
Encoded date                             : UTC 2020-09-06 17:39:29
Writing application                      : v49.0.0 ('Sick Of Losing Soulmates') 64-bit
Writing library                          : libebml v1.4.0 + v1.6.1
Cover                                    : Yes
Attachments                              : cover.jpg

Video
ID                                       : 1
Format                                   : AVC
Format/Info                              : Advanced Video Codec
Format profile                           : [email protected]
Format settings                          : CABAC / 4 Ref Frames
Format settings, CABAC                   : Yes
Format settings, Reference frames        : 4 frames
Codec ID                                 : V_MPEG4/ISO/AVC
Duration                                 : 2 h 9 min
Bit rate                                 : 10.6 Mb/s
Width                                    : 1 920 pixels
Height                                   : 1 040 pixels
Display aspect ratio                     : 1.85:1
Frame rate mode                          : Constant
Frame rate                               : 23.976 (24000/1001) FPS
Color space                              : YUV
Chroma subsampling                       : 4:2:0
Bit depth                                : 8 bits
Scan type                                : Progressive
Bits/(Pixel*Frame)                       : 0.221
Stream size                              : 9.57 GiB (86%)
Writing library                          : core 140 r2377 1ca7bb9
Encoding settings                        : cabac=1 / ref=4 / deblock=1:-3:-3 / analyse=0x3:0x113 / me=umh / subme=8 / psy=1 / psy_rd=1.00:0.00 / mixed_ref=1 / me_range=16 / chroma_me=1 / trellis=1 / 8x8dct=1 / cqm=0 / deadzone=21,11 / fast_pskip=1 / chroma_qp_offset=-2 / threads=12 / lookahead_threads=2 / sliced_threads=0 / nr=0 / decimate=1 / interlaced=0 / bluray_compat=0 / constrained_intra=0 / bframes=3 / b_pyramid=2 / b_adapt=2 / b_bias=0 / direct=3 / weightb=1 / open_gop=0 / weightp=2 / keyint=240 / keyint_min=24 / scenecut=40 / intra_refresh=0 / rc_lookahead=50 / rc=2pass / mbtree=1 / bitrate=10595 / ratetol=1.0 / qcomp=0.60 / qpmin=0 / qpmax=69 / qpstep=4 / cplxblur=20.0 / qblur=0.5 / ip_ratio=1.40 / aq=1:1.00
Language                                 : English
Default                                  : Yes
Forced                                   : No

Audio #1
ID                                       : 2
Format                                   : AC-3
Format/Info                              : Audio Coding 3
Commercial name                          : Dolby Digital
Codec ID                                 : A_AC3
Duration                                 : 2 h 9 min
Bit rate mode                            : Constant
Bit rate                                 : 192 kb/s
Channel(s)                               : 2 channels
Channel layout                           : L R
Sampling rate                            : 48.0 kHz
Frame rate                               : 31.250 FPS (1536 SPF)
Compression mode                         : Lossy
Stream size                              : 178 MiB (2%)
Language                                 : Ukrainian
Service kind                             : Complete Main
Default                                  : Yes
Forced                                   : Yes

Audio #2
ID                                       : 3
Format                                   :
Format/Info                              : Digital Theater Systems
Codec ID                                 : A_DTS
Duration                                 : 2 h 9 min
Bit rate mode                            : Constant
Bit rate                                 : 1 509 kb/s
Channel(s)                               : 6 channels
Channel layout                           : C L R Ls Rs LFE
Sampling rate                            : 48.0 kHz
Frame rate                               : 93.750 FPS (512 SPF)
Bit depth                                : 24 bits
Compression mode                         : Lossy
Stream size                              : 1.36 GiB (12%)
Language                                 : English
Default                                  : No
Forced                                   : No

Text #1
ID                                       : 4
Format                                   : UTF-8
Codec ID                                 : S_TEXT/UTF8
Codec ID/Info                            : UTF-8 Plain Text
Duration                                 : 2 h 3 min
Bit rate                                 : 36 b/s
Count of elements                        : 1083
Stream size                              : 33.0 KiB (0%)
Title                                    : SDH
Language                                 : English
Default                                  : No
Forced                                   : No

Text #2
ID                                       : 5
Format                                   : UTF-8
Codec ID                                 : S_TEXT/UTF8
Codec ID/Info                            : UTF-8 Plain Text
Duration                                 : 2 h 3 min
Bit rate                                 : 33 b/s
Count of elements                        : 985
Stream size                              : 30.7 KiB (0%)
Language                                 : English
Default                                  : No
Forced                                   : No

Menu
00:00:00.000                             : en:00:00:00.000
00:04:34.941                             : en:00:04:34.941
00:08:18.206                             : en:00:08:18.206
00:19:47.520                             : en:00:19:47.520
00:27:29.481                             : en:00:27:29.481
00:35:37.927                             : en:00:35:37.927
00:41:01.334                             : en:00:41:01.334
00:49:14.785                             : en:00:49:14.785
00:57:59.559                             : en:00:57:59.559
01:03:53.288                             : en:01:03:53.288
01:10:53.374                             : en:01:10:53.374
01:22:33.699                             : en:01:22:33.699
01:27:43.967                             : en:01:27:43.967
01:35:33.603                             : en:01:35:33.603
01:42:05.995                             : en:01:42:05.995
01:53:35.183                             : en:01:53:35.183
02:00:12.580                             : en:02:00:12.580
02:04:52.151                             : en:02:04:52.151

Скріншоти





Джерело:


Срібний реліз (на рейтинг впливає 50% завантаженого)
 Трекер:    Зареєстрований   

Завантажити / скачати фільм українською



відео для новачків



 Зареєстрований:   2020-09-07 20:25
 Розмір:   11.11 GB 
 Оцінка фільму:   10/10 (Голосів: 2)
   
Ваш часовий пояс: GMT + 2 Години

Нова тема   Відповісти