Вогнетривкий / Fireproof (2008) 1080p Eng | Sub Ukr/Eng

Нові коментарі

Нова тема   Відповісти
Останній раз роздавалося pavloparf (2020-11-30)
Автор Повідомлення
Alukret 
Свій


З нами з: 11.06.14
Востаннє: 26.11.20
Повідомлень: 100

2020-09-07 14:12  
Вогнетривкий / Fireproof (2008) 1080p Eng | Sub Ukr/Eng

Вогнетривкий / Fireproof (2008) 1080p Eng | Sub Ukr/Eng


Жанр: драма
Країна: США



Кінокомпанія: Samuel Goldwyn Films
Режисер: Алекс Кендрік
Актори: Кірк Камерон, Ерін Беті, Кен Бевелі, Блейк Бейлі, Ентоні Браун, Уолтер Барнетт, Бейлі Кейв, Джанет Деппер, Еллісон Даусон, Стефан Дерван та інші.

Сюжет:
Заходячи в палаючий будинок, капітан Калеб Холт діє по-старому правилу пожежників: «Ніколи не залишай товариша в біді». Приходячи додому, де його чекає дружина, почуття до якої давно згасло, він живе за своїми власними правилами. На роботі Калеб завжди рятує інших, але як йому врятувати свій шлюб?


Тривалість: 01:58:22
Якість:
Відео:
кодек:
розмір кадру: 1920 х 1040
бітрейт: 7977 кб/с

Аудіо:
мова: англійська
переклад: оригінал
кодек: -HD MA 5.1
бітрейт: 2940 кб/с

Субтитри # 1:
мова: українська
тип: програмні (м'які)
формат: *.srt
переклад: Василь Шлемко (famous37)

Субтитри # 2:
мова: англійська
тип: програмні (м'які)
формат: *.srt
Info
Код:


General
Unique ID                                : 271112968172701993270775695265066899289 (0xCBF67557D6852182E235B46AAB5BD759)
Complete name                            : Fireproof (2008) 1080p [UKR_ENG] [Hurtom].
Format                                   :
Format version                           : Version 4
File size                                : 9.03 GiB
Duration                                 : 1 h 58 min
Overall bit rate mode                    : Variable
Overall bit rate                         : 10.9 Mb/s
Movie name                               : Fireproof (2008) 1080p [UKR_ENG] [Hurtom]
Encoded date                             : UTC 2020-09-07 11:43:04
Writing application                      : v44.0.0 ('Domino') 64-bit
Writing library                          : libebml v1.3.10 + v1.5.2

Video
ID                                       : 1
Format                                   : AVC
Format/Info                              : Advanced Video Codec
Format profile                           : [email protected]
Format settings                          : CABAC / 4 Ref Frames
Format settings, CABAC                   : Yes
Format settings, Reference frames        : 4 frames
Codec ID                                 : V_MPEG4/ISO/AVC
Duration                                 : 1 h 58 min
Bit rate                                 : 7 977 kb/s
Width                                    : 1 920 pixels
Height                                   : 1 040 pixels
Display aspect ratio                     : 1.85:1
Frame rate mode                          : Constant
Frame rate                               : 23.976 (24000/1001) FPS
Color space                              : YUV
Chroma subsampling                       : 4:2:0
Bit depth                                : 8 bits
Scan type                                : Progressive
Bits/(Pixel*Frame)                       : 0.167
Stream size                              : 6.59 GiB (73%)
Title                                    : AVC / / 1080p / 7979 kbps
Writing library                          : core 157 r2969 d4099dd
Encoding settings                        : cabac=1 / ref=4 / deblock=1:-1:-1 / analyse=0x3:0x133 / me=hex / subme=9 / psy=1 / psy_rd=1.00:0.15 / mixed_ref=1 / me_range=16 / chroma_me=1 / trellis=2 / 8x8dct=1 / cqm=0 / deadzone=21,11 / fast_pskip=0 / chroma_qp_offset=-3 / threads=6 / lookahead_threads=1 / sliced_threads=0 / nr=0 / decimate=1 / interlaced=0 / bluray_compat=0 / constrained_intra=0 / bframes=3 / b_pyramid=2 / b_adapt=2 / b_bias=0 / direct=3 / weightb=1 / open_gop=0 / weightp=2 / keyint=240 / keyint_min=23 / scenecut=40 / intra_refresh=0 / rc_lookahead=60 / rc=crf / mbtree=1 / crf=20.0 / qcomp=0.60 / qpmin=0 / qpmax=69 / qpstep=4 / vbv_maxrate=31250 / vbv_bufsize=31250 / crf_max=0.0 / nal_hrd=none / filler=0 / ip_ratio=1.40 / aq=1:1.00
Default                                  : Yes
Forced                                   : No

Audio
ID                                       : 2
Format                                   : XLL
Format/Info                              : Digital Theater Systems
Commercial name                          : -HD Master Audio
Codec ID                                 : A_DTS
Duration                                 : 1 h 58 min
Bit rate mode                            : Variable
Bit rate                                 : 2 940 kb/s
Channel(s)                               : 6 channels
Channel layout                           : C L R Ls Rs LFE
Sampling rate                            : 48.0 kHz
Frame rate                               : 93.750 FPS (512 SPF)
Bit depth                                : 24 bits
Compression mode                         : Lossless
Stream size                              : 2.43 GiB (27%)
Title                                    : -HD MA / 5.1 / 2940 kbps
Language                                 : English
Default                                  : Yes
Forced                                   : No

Text #1
ID                                       : 3
Format                                   : UTF-8
Codec ID                                 : S_TEXT/UTF8
Codec ID/Info                            : UTF-8 Plain Text
Duration                                 : 1 h 51 min
Bit rate                                 : 86 b/s
Count of elements                        : 1250
Stream size                              : 71.3 KiB (0%)
Title                                    : Full (Переклад: Василь Шлемко)
Language                                 : Ukrainian
Default                                  : Yes
Forced                                   : Yes

Text #2
ID                                       : 4
Format                                   : UTF-8
Codec ID                                 : S_TEXT/UTF8
Codec ID/Info                            : UTF-8 Plain Text
Duration                                 : 1 h 50 min
Bit rate                                 : 63 b/s
Count of elements                        : 1380
Stream size                              : 51.1 KiB (0%)
Title                                    : Full
Language                                 : English
Default                                  : No
Forced                                   : No

Скріншоти


Джерело:
Особиста оцінка: 9 - давно не бачив настільки якісне кіно


 Трекер:    Зареєстрований   

Завантажити / скачати фільм українською



відео для новачків



 Зареєстрований:   2020-09-07 14:12
 Розмір:   9.03 GB 
 Оцінка фільму:   7/10 (Голосів: 3)
   
Інші релізи
   Вогнетривкий / Fireproof (2008) 720 Ukr/Eng | Sub Eng dragheart  3 / 0   4.69 GB   2020-11-26 18:04 
   Вогнетривкий / Fireproof (2008) AVC Ukr/Eng | sub Ukr/Eng Arsenfpu  4 / 0   2.3 GB   2020-10-28 20:36 
   Вогнетривкий / Fireproof (2008) Eng | Sub Ukr FAELIT  5 / 0   1.45 GB   2019-02-22 17:28 
   Вогнетривкий / Fireproof (2008) Remux 1080p Eng | sub Ukr/Eng famous37  0 / 0   19.12 GB   2016-02-07 17:30 
bot 
робот


З нами з: 30.09.07
Востаннє: 26.05.05
Повідомлень: 26416

2020-10-28 10:10  
Тему перенесено з Фільми в HD до форуму Фільми


Alukret

21jumpstreet 
VIP


З нами з: 03.07.12
Востаннє: 01.12.20
Повідомлень: 1465

2020-10-28 11:08  
Взагалі то є українське озвучення.
Ваш часовий пояс: GMT + 2 Години

Нова тема   Відповісти