Гаттака (Ґаттака) / Gattaca (1997) [Open Matte] 1080p 2xUkr/Eng | Sub Eng

Нові коментарі

Нова тема   Відповісти
Автор Повідомлення
Alukret 
Свій


З нами з: 11.06.14
Востаннє: 18.09.20
Повідомлень: 58

2020-09-07 14:19  
Гаттака (Ґаттака) / Gattaca (1997) [Open Matte] 1080p 2xUkr/Eng | Sub Eng

Гаттака (Ґаттака) / Gattaca (1997) [Open Matte] 1080p 2xUkr/Eng | Sub Eng


Жанр: фантастика, драма
Країна: США



Кінокомпанія: Columbia Pictures Corporation, Jersey Films
Режисер: Ендрю Ніккол / Andrew Niccol
Актори: Етан Хоук, Ума Турман, Джуд Ло, Гор Відал, Ксандер Берклі, Джейн Брук, Еліас Котеас, Майя Рудольф, Елізабет Деннехи, Блер Андервуд, Мейсон Гембл

Сюжет:
Ласкаво просимо в Гаттаку - довершений світ майбутнього. Тут кожен генетично запрограмований, і сумна доля чекає тих, хто був народжений в любові, а не в лабораторії. Така доля Вінсента Фрімена, молодої людини, що одержала при народженні позначку "не придатний". Вінсент володіє вагомими недоліками: він схильний до пристрастей, він піддається емоціям, і він вірить у те, що його мрії збудуться. От чому він купує особу іншої людини, намагаючись обдурити владу і стати поважаним членом Корпорації Майбутнього - Гаттака. І коли він вже на шляху до свободи, вбивство загрожує розкриттям його реальної особи. Не дивлячись на свою невинність, Вінсенту є що приховувати і є що втрачати. Але як важко, коли в тобі живуть дві люди...


Тривалість: 01:46:39
Якість:
Відео:
кодек:
розмір кадру: 1920 х 1080
бітрейт: 8720 кб/с

Аудіо # 1:
мова: українська
переклад: багатоголосий закадровий
кодек: AC-3 5.1
бітрейт: 384 кб/с
примітки: переклад відсутній на 43-ій хвилині

Аудіо # 2:
мова: українська
переклад: багатоголосий закадровий — студія «Так Треба Продакшн» &
кодек: AC-3 2.0
бітрейт: 192 кб/с

Аудіо # 3:
мова: англійська
переклад: оригінал
кодек: E-AC-3 5.1
бітрейт: 640 кб/с

Аудіо # 4:
мова: англійська
переклад: оригінал
кодек: 5.1
бітрейт: 1510 кб/с

Субтитри # 1 (Not Full):
мова: українська
тип: програмні (м'які)
формат: *.srt
примітки: субтитри лише для 43-ї хвилини для перекладу з ТРК «Україна»

Субтитри # 2-4 (Full, Full SDH, Full SDH Amazon):
мова: англійська
тип: програмні (м'які)
формат: *.srt
Порівняння кадрів Open Matte 16:9 (1.78:1) та Blu-Ray (2.39:1)



Info
Код:

General
Unique ID                                : 167226995638821946153543614323494707730 (0x7DCEBF728333399677734A82D1BB6212)
Complete name                            : Gattaca (1997) [Open Matte] 1080p [UKR_ENG] [Hurtom].
Format                                   :
Format version                           : Version 4
File size                                : 8.53 GiB
Duration                                 : 1 h 46 min
Overall bit rate mode                    : Variable
Overall bit rate                         : 11.4 Mb/s
Movie name                               : Gattaca (1997) [Open Matte] 1080p [UKR_ENG] [Hurtom]
Encoded date                             : UTC 2020-09-07 10:56:04
Writing application                      : v44.0.0 ('Domino') 64-bit
Writing library                          : libebml v1.3.10 + v1.5.2

Video
ID                                       : 1
Format                                   : AVC
Format/Info                              : Advanced Video Codec
Format profile                           : [email protected]
Format settings                          : CABAC / 4 Ref Frames
Format settings, CABAC                   : Yes
Format settings, Reference frames        : 4 frames
Codec ID                                 : V_MPEG4/ISO/AVC
Duration                                 : 1 h 46 min
Bit rate mode                            : Variable
Bit rate                                 : 8 720 kb/s
Maximum bit rate                         : 15.0 Mb/s
Width                                    : 1 920 pixels
Height                                   : 1 080 pixels
Display aspect ratio                     : 16:9
Frame rate mode                          : Constant
Frame rate                               : 23.976 (24000/1001) FPS
Color space                              : YUV
Chroma subsampling                       : 4:2:0
Bit depth                                : 8 bits
Scan type                                : Progressive
Bits/(Pixel*Frame)                       : 0.175
Stream size                              : 6.50 GiB (76%)
Title                                    : AVC / / 1080p / 8372 kbps / Amazon Starz
Default                                  : Yes
Forced                                   : No
Color range                              : Limited
Color primaries                          : BT.709
Transfer characteristics                 : BT.709
Matrix coefficients                      : BT.709

Audio #1
ID                                       : 2
Format                                   : AC-3
Format/Info                              : Audio Coding 3
Commercial name                          : Dolby Digital
Codec ID                                 : A_AC3
Duration                                 : 1 h 46 min
Bit rate mode                            : Constant
Bit rate                                 : 384 kb/s
Channel(s)                               : 6 channels
Channel layout                           : L R C LFE Ls Rs
Sampling rate                            : 48.0 kHz
Frame rate                               : 31.250 FPS (1536 SPF)
Bit depth                                : 16 bits
Compression mode                         : Lossy
Stream size                              : 293 MiB (3%)
Title                                    : AC-3 / 5.1 / 384 kbps / MVO / ТРК «Україна»
Language                                 : Ukrainian
Service kind                             : Complete Main
Default                                  : Yes
Forced                                   : No

Audio #2
ID                                       : 3
Format                                   : AC-3
Format/Info                              : Audio Coding 3
Commercial name                          : Dolby Digital
Codec ID                                 : A_AC3
Duration                                 : 1 h 46 min
Bit rate mode                            : Constant
Bit rate                                 : 192 kb/s
Channel(s)                               : 2 channels
Channel layout                           : L R
Sampling rate                            : 48.0 kHz
Frame rate                               : 31.250 FPS (1536 SPF)
Bit depth                                : 16 bits
Compression mode                         : Lossy
Delay relative to video                  : 7 s 700 ms
Stream size                              : 146 MiB (2%)
Title                                    : AC-3 / 2.0 / 192 kbps / MVO / «Так Треба Продакшн» / AMC
Language                                 : Ukrainian
Service kind                             : Complete Main
Default                                  : No
Forced                                   : No

Audio #3
ID                                       : 4
Format                                   : E-AC-3
Format/Info                              : Enhanced AC-3
Commercial name                          : Dolby Digital Plus
Codec ID                                 : A_EAC3
Duration                                 : 1 h 46 min
Bit rate mode                            : Constant
Bit rate                                 : 640 kb/s
Channel(s)                               : 6 channels
Channel layout                           : L R C LFE Ls Rs
Sampling rate                            : 48.0 kHz
Frame rate                               : 31.250 FPS (1536 SPF)
Compression mode                         : Lossy
Stream size                              : 488 MiB (6%)
Title                                    : E-AC-3 / 5.1 / 640 kbps / Amazon
Language                                 : English
Service kind                             : Complete Main
Default                                  : No
Forced                                   : No

Audio #4
ID                                       : 5
Format                                   :
Format/Info                              : Digital Theater Systems
Codec ID                                 : A_DTS
Duration                                 : 1 h 46 min
Bit rate mode                            : Constant
Bit rate                                 : 1 510 kb/s
Channel(s)                               : 6 channels
Channel layout                           : C L R Ls Rs LFE
Sampling rate                            : 48.0 kHz
Frame rate                               : 93.750 FPS (512 SPF)
Bit depth                                : 24 bits
Compression mode                         : Lossy
Stream size                              : 1.12 GiB (13%)
Title                                    : / 5.1 / 1510 kbps / Blu-ray CEE
Language                                 : English
Default                                  : No
Forced                                   : No

Text #1
ID                                       : 6
Format                                   : UTF-8
Codec ID                                 : S_TEXT/UTF8
Codec ID/Info                            : UTF-8 Plain Text
Duration                                 : 33 s 617 ms
Bit rate                                 : 116 b/s
Count of elements                        : 7
Stream size                              : 488 Bytes (0%)
Title                                    : Not Full (only 42 min)
Language                                 : Ukrainian
Default                                  : Yes
Forced                                   : Yes

Text #2
ID                                       : 7
Format                                   : UTF-8
Codec ID                                 : S_TEXT/UTF8
Codec ID/Info                            : UTF-8 Plain Text
Duration                                 : 1 h 38 min
Bit rate                                 : 41 b/s
Count of elements                        : 674
Stream size                              : 29.9 KiB (0%)
Title                                    : Full
Language                                 : English
Default                                  : No
Forced                                   : No

Text #3
ID                                       : 8
Format                                   : UTF-8
Codec ID                                 : S_TEXT/UTF8
Codec ID/Info                            : UTF-8 Plain Text
Duration                                 : 1 h 42 min
Bit rate                                 : 39 b/s
Count of elements                        : 921
Stream size                              : 29.8 KiB (0%)
Title                                    : Full SDH
Language                                 : English
Default                                  : No
Forced                                   : No

Text #4
ID                                       : 9
Format                                   : UTF-8
Codec ID                                 : S_TEXT/UTF8
Codec ID/Info                            : UTF-8 Plain Text
Duration                                 : 1 h 38 min
Bit rate                                 : 50 b/s
Count of elements                        : 1240
Stream size                              : 36.1 KiB (0%)
Title                                    : Full SDH / Amazon
Language                                 : English
Default                                  : No
Forced                                   : No

Menu
00:00:00.000                             : en:Opening Titles
00:07:39.084                             : en:"the Not-Too-Distant Future"
00:10:58.491                             : en:Ten Fingers, Ten Toes
00:18:49.712                             : en:The "Natural" Way
00:23:40.210                             : en:The Unspoken Contest
00:31:38.730                             : en:Discrimination Down to a Science
00:37:20.947                             : en:The Dna Broker
00:43:47.542                             : en:Becoming Jerome
00:48:39.208                             : en:The Interview
00:56:10.867                             : en:The "Hoovers"
01:03:50.410                             : en:Cavendish Club
01:08:56.257                             : en:In-Valid
01:17:00.950                             : en:The Eyelash
01:22:14.388                             : en:Irene's Confession
01:28:35.519                             : en:A Close Call
01:34:10.728                             : en:Random Checkpoint

Скріншоти


За українську доріжку від ТРК "Україна" подяка п.: Merdiff, Disturbed, MAKAPOHHIK.
За запис звуку з каналу "AMC" дякуємо пану Sando7.

Джерело: Rutor.org &
Особиста оцінка: 10 - без зайвих вагань рекомендую всім!


Срібний реліз (на рейтинг впливає 50% завантаженого)
 Трекер:    Зареєстрований   

Завантажити / скачати фільм українською



відео для новачків



 Зареєстрований:   2020-09-07 14:19
 Розмір:   8.53 GB 
 Оцінка фільму:   8.7/10 (Голосів: 7)
   
Інші релізи
Ваш часовий пояс: GMT + 2 Години

Нова тема   Відповісти