Долина папороті 2: Чарівний порятунок / FernGully 2: The Magical Rescue (1998) -AVC Ukr/Eng | Sub Ukr/Eng

Нові коментарі

Нова тема   Відповісти
Автор Повідомлення
Alukret 
Свій


З нами з: 11.06.14
Востаннє: 30.10.20
Повідомлень: 96

2020-09-07 02:14  
Долина папороті 2: Чарівний порятунок / FernGully 2: The Magical Rescue (1998) -AVC Ukr/Eng | Sub Ukr/Eng

Долина папороті 2: Чарівний порятунок / FernGully 2: The Magical Rescue (1998) -AVC Ukr/Eng | Sub Ukr/Eng



Жанр: анімація
Країна: США



Кінокомпанія: FAI Films, Rosen Harper Entertainment
Режисер: Філ Робінсон, Дейв Маршал
Ролі озвучують: Лаура Ерліх, Гаррі Джозеф, Гаррі Мартін, Мет Міллер, Дігорі Оакс, Вестін Піс, Конні Шампейн, Ерік Бергман, Джеймс Бейкер

Сюжет:
Продовження мультфільму, створеного за мотивами казок Даяни Янґ. Ви знову перенесетеся в чарівну Долину папороті, де живуть смішні, милі звірятка. Тепер Бетті, Кріста і Піпс роблять спробу повернути в ліс трьох маленьких звірів, викрадених людьми.


Тривалість: 01:10:21
Якість:
Відео:
кодек:
розмір кадру: 716 х 576 @ 768 x 576
бітрейт: 1471 кб/с

Аудіо # 1:
мова: українська
переклад: професійний дубльований
кодек: AC-3 2.0
бітрейт: 192 кб/с

Аудіо # 2:
мова: англійська
переклад: оригінал
кодек: AC-3 2.0
бітрейт: 192 кб/с

Субтитри # 1 (Full):
мова: українська
тип: програмні (м'які)
формат: *.srt

Субтитри # 2 (Full):
мова: англійська
тип: програмні (м'які)
формат: *.srt
Info

Код:

General
Unique ID                                : 274332761415176714313195708732706368538 (0xCE62916807317846236BAB1FCFEBAC1A)
Complete name                            : FernGully 2. The Magical Rescue (1998) -AVC [UKR_ENG] [Hurtom].
Format                                   :
Format version                           : Version 4
File size                                : 935 MiB
Duration                                 : 1 h 10 min
Overall bit rate                         : 1 857 kb/s
Movie name                               : FernGully 2. The Magical Rescue (1998) -AVC [UKR_ENG] [Hurtom]
Encoded date                             : UTC 2020-09-06 23:54:04
Writing application                      : v44.0.0 ('Domino') 64-bit
Writing library                          : libebml v1.3.10 + v1.5.2

Video
ID                                       : 1
Format                                   : AVC
Format/Info                              : Advanced Video Codec
Format profile                           : [email protected]
Format settings                          : CABAC / 4 Ref Frames
Format settings, CABAC                   : Yes
Format settings, Reference frames        : 4 frames
Codec ID                                 : V_MPEG4/ISO/AVC
Duration                                 : 1 h 10 min
Bit rate                                 : 1 471 kb/s
Width                                    : 716 pixels
Height                                   : 576 pixels
Display aspect ratio                     : 4:3
Frame rate mode                          : Constant
Frame rate                               : 25.000 FPS
Color space                              : YUV
Chroma subsampling                       : 4:2:0
Bit depth                                : 8 bits
Scan type                                : Progressive
Bits/(Pixel*Frame)                       : 0.143
Stream size                              : 740 MiB (79%)
Title                                    : AVC / 576p / 1635 kbps
Writing library                          : core 157 r2935 545de2f
Encoding settings                        : cabac=1 / ref=3 / deblock=1:0:0 / analyse=0x1:0x111 / me=hex / subme=7 / psy=1 / psy_rd=1.00:0.00 / mixed_ref=1 / me_range=16 / chroma_me=1 / trellis=1 / 8x8dct=0 / cqm=0 / deadzone=21,11 / fast_pskip=1 / chroma_qp_offset=-2 / threads=6 / lookahead_threads=1 / sliced_threads=0 / nr=0 / decimate=1 / interlaced=0 / bluray_compat=0 / constrained_intra=0 / bframes=3 / b_pyramid=2 / b_adapt=1 / b_bias=0 / direct=1 / weightb=1 / open_gop=0 / weightp=2 / keyint=250 / keyint_min=25 / scenecut=40 / intra_refresh=0 / rc_lookahead=40 / rc=crf / mbtree=1 / crf=20.0 / qcomp=0.60 / qpmin=0 / qpmax=69 / qpstep=4 / vbv_maxrate=14000 / vbv_bufsize=14000 / crf_max=0.0 / nal_hrd=none / filler=0 / ip_ratio=1.40 / aq=1:1.00
Default                                  : Yes
Forced                                   : No
Color range                              : Limited
Color primaries                          : BT.601 PAL
Transfer characteristics                 : BT.709
Matrix coefficients                      : BT.601

Audio #1
ID                                       : 2
Format                                   : AC-3
Format/Info                              : Audio Coding 3
Commercial name                          : Dolby Digital
Codec ID                                 : A_AC3
Duration                                 : 1 h 10 min
Bit rate mode                            : Constant
Bit rate                                 : 192 kb/s
Channel(s)                               : 2 channels
Channel layout                           : L R
Sampling rate                            : 48.0 kHz
Frame rate                               : 31.250 FPS (1536 SPF)
Bit depth                                : 16 bits
Compression mode                         : Lossy
Delay relative to video                  : -77 ms
Stream size                              : 96.6 MiB (10%)
Title                                    : AC-3 / 2.0 / 192 kbps / DUB
Language                                 : Ukrainian
Service kind                             : Complete Main
Default                                  : Yes
Forced                                   : No

Audio #2
ID                                       : 3
Format                                   : AC-3
Format/Info                              : Audio Coding 3
Commercial name                          : Dolby Digital
Codec ID                                 : A_AC3
Duration                                 : 1 h 10 min
Bit rate mode                            : Constant
Bit rate                                 : 192 kb/s
Channel(s)                               : 2 channels
Channel layout                           : L R
Sampling rate                            : 48.0 kHz
Frame rate                               : 31.250 FPS (1536 SPF)
Bit depth                                : 16 bits
Compression mode                         : Lossy
Delay relative to video                  : -77 ms
Stream size                              : 96.6 MiB (10%)
Title                                    : AC-3 / 2.0 / 192 kbps
Language                                 : English
Service kind                             : Complete Main
Default                                  : No
Forced                                   : No

Text #1
ID                                       : 4
Format                                   : UTF-8
Codec ID                                 : S_TEXT/UTF8
Codec ID/Info                            : UTF-8 Plain Text
Duration                                 : 1 h 9 min
Bit rate                                 : 57 b/s
Count of elements                        : 620
Stream size                              : 29.1 KiB (0%)
Title                                    : Full
Language                                 : Ukrainian
Default                                  : Yes
Forced                                   : No

Text #2
ID                                       : 5
Format                                   : UTF-8
Codec ID                                 : S_TEXT/UTF8
Codec ID/Info                            : UTF-8 Plain Text
Duration                                 : 1 h 10 min
Bit rate                                 : 39 b/s
Count of elements                        : 665
Stream size                              : 20.4 KiB (0%)
Title                                    : Full
Language                                 : English
Default                                  : No
Forced                                   : No

Menu
00:00:00.056                             : :Chapter 1
00:01:06.016                             : :Chapter 2
00:02:44.736                             : :Chapter 3
00:06:28.736                             : :Chapter 4
00:11:18.016                             : :Chapter 5
00:14:20.696                             : :Chapter 6
00:20:01.416                             : :Chapter 7
00:21:23.896                             : :Chapter 8
00:23:20.736                             : :Chapter 9
00:25:12.136                             : :Chapter 10
00:30:09.016                             : :Chapter 11
00:33:05.136                             : :Chapter 12
00:36:39.456                             : :Chapter 13
00:39:03.616                             : :Chapter 14
00:41:54.176                             : :Chapter 15
00:45:16.496                             : :Chapter 16
00:48:58.096                             : :Chapter 17
00:53:17.776                             : :Chapter 18
00:56:06.816                             : :Chapter 19
00:59:06.296                             : :Chapter 20
01:00:26.656                             : :Chapter 21
01:03:06.016                             : :Chapter 22
01:04:54.776                             : :Chapter 23
01:06:57.016                             : :Chapter 24

Скріншоти


Джерело: &
Особиста оцінка: 8 - мені сподобалося


Срібний реліз (на рейтинг впливає 50% завантаженого)
 Трекер:    Зареєстрований   

Завантажити / скачати мультфільм українською



відео для новачків



 Зареєстрований:   2020-09-07 02:14
 Розмір:   935 MB 
 Оцінка мультфільму:   9.3/10 (Голосів: 3)
   
Ваш часовий пояс: GMT + 2 Години

Нова тема   Відповісти