Формула 1. Сезон 2020. Етап 8. Гран-Прі Італії. Гонка (06.09.2020) IPTV 1080p 2хUkr/Eng/Int

Нові коментарі

Нова тема   Відповісти
Автор Повідомлення
sergiyko.5 
VIP


З нами з: 25.02.16
Востаннє: 20.10.20
Повідомлень: 3578

2020-09-06 20:19  
Формула 1. Сезон 2020. Етап 8. Гран-Прі Італії. Гонка (06.09.2020) IPTV 1080p 2хUkr/Eng/Int


Формула 1. Сезон 2020. Етап 8. Гран-Прі Італії. Гонка (06.09.2020) IPTV 1080p 2хUkr/Eng/Int

Жанр: Перегони Формули 1
Країна: Італія
Телеканал: F1TV
Коментар: Максим Подзігун, Роман Гончаров, англійською

Опис:
Гонка восьмого етапу Гран-Прі Італії 2020 року.


Якість: IPTV

Відео: кодек: розмір кадру: 1920 х 1080 бітрейт: 5500 кб/с 25 кад/с
Аудіо 1: мова: українська кодек: 2.0 бітрейт: 192 кб/с
Аудіо 2: мова: українська кодек: 2.0 бітрейт: 192 кб/с
Аудіо 3: мова: англійська кодек: 2.0 бітрейт: 192 кб/с
Аудіо 4: мова: - кодек: 2.0 бітрейт: 192 кб/с
Тривалість:
02:32:28
Про файл:
General
Unique ID : 14225717830513861885364193202214857434 (0xAB3C60A52BAFBF4CB2D6AC02D74EADA)
Complete name : D:\Documents\Torrents\SPORT\Formula 1\F1.2020.08.Italy.Monza.Race.1080p.IPTV.Ukr.Eng.Int.
Format :
Format version : Version 4
File size : 6.67 GiB
Duration : 2 h 32 min
Overall bit rate mode : Constant
Overall bit rate : 6 266 kb/s
Movie name : rip by sergiyko
Encoded date : UTC 2020-09-06 17:12:53
Writing application : v49.0.0 ('Sick Of Losing Soulmates') 64-bit
Writing library : libebml v1.4.0 + v1.6.1

Video
ID : 1
Format : AVC
Format/Info : Advanced Video Codec
Format profile : [email protected]
Format settings : CABAC / 4 Ref Frames
Format settings, CABAC : Yes
Format settings, Reference : 4 frames
Format settings, GOP : M=4, N=50
Codec ID : V_MPEG4/ISO/AVC
Duration : 2 h 32 min
Bit rate mode : Constant
Bit rate : 5 500 kb/s
Width : 1 920 pixels
Height : 1 080 pixels
Display aspect ratio : 16:9
Frame rate mode : Constant
Frame rate : 25.000 FPS
Color space : YUV
Chroma subsampling : 4:2:0
Bit depth : 8 bits
Scan type : Progressive
Bits/(Pixel*Frame) : 0.106
Stream size : 5.85 GiB (88%)
Language : English
Default : Yes
Forced : No

Audio #1
ID : 2
Format : AC-3
Format/Info : Audio Coding 3
Commercial name : Dolby Digital
Codec ID : A_AC3
Duration : 2 h 32 min
Bit rate mode : Constant
Bit rate : 192 kb/s
Channel(s) : 2 channels
Channel layout : L R
Sampling rate : 48.0 kHz
Frame rate : 31.250 FPS (1536 SPF)
Compression mode : Lossy
Delay relative to video : 24 ms
Stream size : 209 MiB (3%)
Title : Максим Подзігун
Language : Ukrainian
Service kind : Complete Main
Default : Yes
Forced : Yes

Audio #2
ID : 3
Format : AC-3
Format/Info : Audio Coding 3
Commercial name : Dolby Digital
Codec ID : A_AC3
Duration : 2 h 32 min
Bit rate mode : Constant
Bit rate : 192 kb/s
Channel(s) : 2 channels
Channel layout : L R
Sampling rate : 48.0 kHz
Frame rate : 31.250 FPS (1536 SPF)
Compression mode : Lossy
Delay relative to video : 24 ms
Stream size : 209 MiB (3%)
Title : Роман Гончаров
Language : Ukrainian
Service kind : Complete Main
Default : No
Forced : No

Audio #3
ID : 4
Format : AC-3
Format/Info : Audio Coding 3
Commercial name : Dolby Digital
Codec ID : A_AC3
Duration : 2 h 32 min
Bit rate mode : Constant
Bit rate : 192 kb/s
Channel(s) : 2 channels
Channel layout : L R
Sampling rate : 48.0 kHz
Frame rate : 31.250 FPS (1536 SPF)
Compression mode : Lossy
Delay relative to video : 24 ms
Stream size : 209 MiB (3%)
Title : Sky Sports F1
Language : English
Service kind : Complete Main
Default : No
Forced : No

Audio #4
ID : 5
Format : AC-3
Format/Info : Audio Coding 3
Commercial name : Dolby Digital
Codec ID : A_AC3
Duration : 2 h 32 min
Bit rate mode : Constant
Bit rate : 192 kb/s
Channel(s) : 2 channels
Channel layout : L R
Sampling rate : 48.0 kHz
Frame rate : 31.250 FPS (1536 SPF)
Compression mode : Lossy
Delay relative to video : 24 ms
Stream size : 209 MiB (3%)
Title : Інтершум
Service kind : Complete Main
Default : No
Forced : No
Скріншоти:


Запис/зведення: sergiyko



Срібний реліз (на рейтинг впливає 50% завантаженого)
 Трекер:    Зареєстрований   

Завантажити / скачати торрент



відео для новачків



 Зареєстрований:   2020-09-06 20:19
 Розмір:   6.67 GB 
 Оцінка:   10/10 (Голосів: 43)
   
boboha 
Новенький


З нами з: 25.05.20
Востаннє: 14.10.20
Повідомлень: 1

2020-09-06 20:42  
Дуже дякую, sergiyko!

Не очикував від Монци такої цікавої гонки...

tarasik24 
Попереджень: 1
Попереджень: 1 


З нами з: 25.03.17
Востаннє: 19.10.20
Повідомлень: 5

2020-09-08 14:12  
Найемоційніша гонка сезону
vadYOsa 
Новенький


З нами з: 05.04.12
Востаннє: 14.10.20
Повідомлень: 5

2020-09-11 17:13  
Дякую! З тих пір як на рутрекері наш земляк Shewa1 перестав роздавати 50fps UKR+INT, ці роздачі, напевно, єдина альтернатива. Ще раз дякую!
Dron1994 
Частий відвідувач


З нами з: 07.07.14
Востаннє: 14.10.20
Повідомлень: 32

2020-09-14 10:55  
Ця гонка може з гордістю називатися найкращою за увесь сезон 2020! Емоцій просто вагон, дуже дякую!
Ваш часовий пояс: GMT + 2 Години

Нова тема   Відповісти