Формула 1. Сезон 2020. Етап 8. Гран-Прі Італії. Кваліфікація (05.09.2020) IPTV 1080p Ukr/Eng/Int

Нові коментарі

Нова тема   Відповісти
Автор Повідомлення
sergiyko.5 
VIP


З нами з: 25.02.16
Востаннє: 24.10.20
Повідомлень: 3615

2020-09-05 18:32  
Формула 1. Сезон 2020. Етап 8. Гран-Прі Італії. Кваліфікація (05.09.2020) IPTV 1080p Ukr/Eng/Int


Формула 1. Сезон 2020. Етап 8. Гран-Прі Італії. Кваліфікація (05.09.2020) IPTV 1080p Ukr/Eng/Int

Жанр: Перегони Формули 1
Країна: Італія
Телеканал: F1TV
Коментар: Максим Подзігун, англійською

Опис:
Кваліфікація восьмого етапу Гран-Прі Італії 2020 року.


Якість: IPTV

Відео: кодек: розмір кадру: 1920 х 1080 бітрейт: 5500 кб/с 25 кад/с
Аудіо 1: мова: українська кодек: 2.0 бітрейт: 192 кб/с
Аудіо 2: мова: англійська кодек: 2.0 бітрейт: 192 кб/с
Аудіо 3: мова: - кодек: 2.0 бітрейт: 192 кб/с
Тривалість:
01:19:37
Про файл:
General
Unique ID : 286307980584847486198132683082574438144 (0xD764E94BC7527F94855BCDEB8EA59F00)
Complete name : D:\Documents\Torrents\SPORT\Formula 1\F1.2020.08.Italy.Monza.Qualifying.1080p.IPTV.Ukr.Eng.Int.
Format :
Format version : Version 4
File size : 3.38 GiB
Duration : 1 h 19 min
Overall bit rate mode : Constant
Overall bit rate : 6 075 kb/s
Encoded date : UTC 2020-09-05 15:25:41
Writing application : v49.0.0 ('Sick Of Losing Soulmates') 64-bit
Writing library : libebml v1.4.0 + v1.6.1

Video
ID : 1
Format : AVC
Format/Info : Advanced Video Codec
Format profile : [email protected]
Format settings : CABAC / 4 Ref Frames
Format settings, CABAC : Yes
Format settings, Reference : 4 frames
Format settings, GOP : M=4, N=50
Codec ID : V_MPEG4/ISO/AVC
Duration : 1 h 19 min
Bit rate mode : Constant
Bit rate : 5 500 kb/s
Width : 1 920 pixels
Height : 1 080 pixels
Display aspect ratio : 16:9
Frame rate mode : Constant
Frame rate : 25.000 FPS
Color space : YUV
Chroma subsampling : 4:2:0
Bit depth : 8 bits
Scan type : Progressive
Bits/(Pixel*Frame) : 0.106
Stream size : 3.06 GiB (90%)
Language : English
Default : Yes
Forced : No

Audio #1
ID : 2
Format : AC-3
Format/Info : Audio Coding 3
Commercial name : Dolby Digital
Codec ID : A_AC3
Duration : 1 h 19 min
Bit rate mode : Constant
Bit rate : 192 kb/s
Channel(s) : 2 channels
Channel layout : L R
Sampling rate : 48.0 kHz
Frame rate : 31.250 FPS (1536 SPF)
Compression mode : Lossy
Delay relative to video : 24 ms
Stream size : 109 MiB (3%)
Title : Максим Подзігун
Language : Ukrainian
Service kind : Complete Main
Default : Yes
Forced : Yes

Audio #2
ID : 3
Format : AC-3
Format/Info : Audio Coding 3
Commercial name : Dolby Digital
Codec ID : A_AC3
Duration : 1 h 19 min
Bit rate mode : Constant
Bit rate : 192 kb/s
Channel(s) : 2 channels
Channel layout : L R
Sampling rate : 48.0 kHz
Frame rate : 31.250 FPS (1536 SPF)
Compression mode : Lossy
Delay relative to video : 24 ms
Stream size : 109 MiB (3%)
Title : Sky Sports F1
Language : English
Service kind : Complete Main
Default : No
Forced : No

Audio #3
ID : 4
Format : AC-3
Format/Info : Audio Coding 3
Commercial name : Dolby Digital
Codec ID : A_AC3
Duration : 1 h 19 min
Bit rate mode : Constant
Bit rate : 192 kb/s
Channel(s) : 2 channels
Channel layout : L R
Sampling rate : 48.0 kHz
Frame rate : 31.250 FPS (1536 SPF)
Compression mode : Lossy
Delay relative to video : 24 ms
Stream size : 109 MiB (3%)
Title : Int
Service kind : Complete Main
Default : No
Forced : No
Скріншоти:


Запис/зведення: sergiyko



 Трекер:    Зареєстрований   

Завантажити / скачати торрент



відео для новачків



 Зареєстрований:   2020-09-05 18:32
 Розмір:   3.38 GB 
 Оцінка:   10/10 (Голосів: 31)
   
nazarster 
Новенький


З нами з: 03.04.13
Востаннє: 15.10.20
Повідомлень: 8

2020-09-06 19:35  
А буде гонка? Happy
sergiyko.5 
VIP


З нами з: 25.02.16
Востаннє: 24.10.20
Повідомлень: 3615

2020-09-06 19:40  
Буде, працюю. Матеріал створювати треба з декількох файлів, не все так просто.
Ваш часовий пояс: GMT + 2 Години

Нова тема   Відповісти