[збір коштів] Гострі Картузи (Сезон 4, серія 1) / Peaky Blinders (Season 4, episode 1) (2017) AVC Ukr/Eng

Нові коментарі

Нова тема   Відповісти
Автор Повідомлення
Цікава ідея 
VIP


З нами з: 26.12.11
Востаннє: 28.09.20
Повідомлень: 668

2020-09-04 21:37  
AVC | 1080p

[збір коштів] Гострі Картузи (Сезон 4, серія 1) / Peaky Blinders (Season 4, episode 1) (2017) AVC Ukr/Eng


[збір коштів] Гострі Картузи (Сезон 4, серія 1) / Peaky Blinders (Season 4, episode 1) (2017) AVC Ukr/Eng


На озвучення серіалу проходить ЗБІР КОШТІВ


Жанр: драма, історичний, кримінальний, бойовик
Країна: Велика Британія



Кінокомпанія / телеканал: BBC
Режисери: Колм Маккарті, Тім Мілантс, Отто Баферст, Том Гарпер
Актори: Кілліан Мерфі, Сем Нілл, Гелен Маккрорі та інші.

Сюжет:
Дія четвертого сезону «Гострих картузів» починається в грудні 1925 року. Томмі нарешті набуває довгоочікуваний законний статус. Колишній гангстер самотній, живе окремо від своєї великої родини і зосереджений тільки на роботі. У різдвяний святвечір він отримує таємничого листа і розуміє, що його друзі та рідні знаходяться у великій небезпеці.


Перекладено та озвучено ТО "Цікава Ідея"


Тривалість: 1 серія: ~ 60 хв. (цілком серій: 1/6)
Перелік серій:

01. Episode #4.1
02. —
03. —
04. —
05. —
06. —
Якість: AVC
Відео:
кодек:
розмір кадру: 720 x 388
бітрейт: ~ 1 000 кб/с

Аудіо # 1:
мова: українська | "Цікава Ідея"
переклад: професійний багатоголосий закадровий
кодек: 5.1
бітрейт: 448 кб/с

Аудіо # 2:
мова: англійська
переклад: оригінал
кодек: 2.0
бітрейт: 113 кб/с
Info
Код:
Format                                   :
Format version                           : Version 4
File size                                : 481 MiB
Duration                                 : 57 min 54 s
Overall bit rate                         : 1 161 kb/s
Movie name                               : Гострі картузи / Peaky Blinders - S04E01 (2017) AVC [Ukr.Eng] [Цікава Ідея]
Encoded date                             : UTC 2020-09-26 15:54:59
Writing application                      : v50.0.0 ('Awakenings') 64-bit
Writing library                          : libebml v1.4.0 + v1.6.2
Cover                                    : Yes
Attachments                              : cover.jpg

Video
ID                                       : 1
Format                                   : AVC
Format/Info                              : Advanced Video Codec
Format profile                           : [email protected]
Format settings                          : CABAC / 5 Ref Frames
Format settings, CABAC                   : Yes
Format settings, Reference frames        : 5 frames
Codec ID                                 : V_MPEG4/ISO/AVC
Duration                                 : 57 min 54 s
Bit rate                                 : 594 kb/s
Width                                    : 720 pixels
Height                                   : 388 pixels
Display aspect ratio                     : 1.85:1
Frame rate mode                          : Constant
Frame rate                               : 25.000 FPS
Color space                              : YUV
Chroma subsampling                       : 4:2:0
Bit depth                                : 8 bits
Scan type                                : Progressive
Bits/(Pixel*Frame)                       : 0.085
Stream size                              : 246 MiB (51%)
Writing library                          : core 155 r2893 b00bcaf
Encoding settings                        : cabac=1 / ref=5 / deblock=1:-2:-2 / analyse=0x3:0x113 / me=umh / subme=8 / psy=1 / psy_rd=1.00:0.00 / mixed_ref=1 / me_range=16 / chroma_me=1 / trellis=2 / 8x8dct=1 / cqm=0 / deadzone=21,11 / fast_pskip=1 / chroma_qp_offset=-2 / threads=12 / lookahead_threads=2 / sliced_threads=0 / nr=0 / decimate=1 / interlaced=0 / bluray_compat=0 / constrained_intra=0 / bframes=3 / b_pyramid=2 / b_adapt=1 / b_bias=0 / direct=3 / weightb=1 / open_gop=0 / weightp=2 / keyint=250 / keyint_min=25 / scenecut=40 / intra_refresh=0 / rc_lookahead=50 / rc=crf / mbtree=1 / crf=19.0 / qcomp=0.60 / qpmin=0 / qpmax=69 / qpstep=4 / ip_ratio=1.40 / aq=1:0.70
Default                                  : Yes
Forced                                   : No
Color range                              : Limited
Matrix coefficients                      : BT.709

Audio #1
ID                                       : 2
Format                                   : AC-3
Format/Info                              : Audio Coding 3
Commercial name                          : Dolby Digital
Codec ID                                 : A_AC3
Duration                                 : 57 min 54 s
Bit rate mode                            : Constant
Bit rate                                 : 448 kb/s
Channel(s)                               : 6 channels
Channel layout                           : L R C LFE Ls Rs
Sampling rate                            : 48.0 kHz
Frame rate                               : 31.250 FPS (1536 SPF)
Compression mode                         : Lossy
Stream size                              : 186 MiB (39%)
Title                                    : Цікава Ідея
Language                                 : Ukrainian
Service kind                             : Complete Main
Default                                  : Yes
Forced                                   : Yes

Audio #2
ID                                       : 3
Format                                   : LC
Format/Info                              : Advanced Audio Codec Low Complexity
Codec ID                                 : A_AAC-2
Duration                                 : 57 min 54 s
Bit rate                                 : 113 kb/s
Channel(s)                               : 2 channels
Channel layout                           : L R
Sampling rate                            : 48.0 kHz
Frame rate                               : 46.875 FPS (1024 SPF)
Compression mode                         : Lossy
Delay relative to video                  : 9 ms
Stream size                              : 46.9 MiB (10%)
Title                                    : Original
Language                                 : English
Default                                  : No
Forced                                   : No
Скріншоти



Перекладено та озвучено творчим об'єднанням:
Переклад: Федір Сидорук.



Авторський реліз (завантажувати можна без реєстрації)
 Трекер:    Зареєстрований   

Завантажити / скачати серіал українською



відео для новачків



 Зареєстрований:   2020-09-26 20:48
 Розмір:   481 MB 
 Оцінка серіалу:   10/10 (Голосів: 1)
   
bot 
робот


З нами з: 30.09.07
Востаннє: 26.05.05
Повідомлень: 25640

2020-09-26 20:47  
Тему перенесено з Анонси релізів до форуму Телесеріали


Цікава ідея

Цікава ідея 
VIP


З нами з: 26.12.11
Востаннє: 28.09.20
Повідомлень: 668

2020-09-26 20:51  
Друзі, ми переклали та озвучили 1-у серію!
Підтримайте озвучення українською. Реквізити в описі.


Бажаємо всім приємного перегляду!

Ваш часовий пояс: GMT + 2 Години

Нова тема   Відповісти