Птахолов / The Birdcatcher (2019) Remux 1080p Ukr/Eng | sub Eng

Нові коментарі

Нова тема   Відповісти
Автор Повідомлення
Anonymous 







2020-09-04 17:50  
Птахолов / The Birdcatcher (2019) Remux 1080p Ukr/Eng | sub Eng



Жанр: драма, історія, трилер
Країна: Великобританія, Норвегія



Кінокомпанія: Motion Picture Capital
Режисер: Росс Кларк
Актори: Аугуст Діль, Сара-Софі Буссніна, Якоб Седергрен, Лаура Бірн, Йоханнес Кунке, Андерс Босм Крістіансен, Йонас Хофф Офтебро, Артур Хакалахті, Крістофер Дейн, Тібо Ванденборре

Сюжет:
Після окупації Норвегії німцями Естер втратила батьків і була змушена бігти в ліси, щоб не опинитися в концентраційному таборі. Волею долі вона опиняється на віддаленій фермі, де їй доводиться зображати хлопчика, приховуючи свою особистість від власника-нациста.


Тривалість: 01:40:20
Якість: Remux 1080p
Відео:
кодек:
розмір кадру: 1920x1080
бітрейт: 26.7 Мб/с

Аудіо # 1:
мова: українська
переклад: багатоголосий закадровий
кодек: 5.1
бітрейт: 384 кб/с

Аудіо # 2:
мова: англійська
переклад: оригінал
кодек: 5.1
бітрейт: 640 кб/с

Аудіо # 3:
мова: англійська
переклад: оригінал
кодек: -HD Master 5.1
бітрейт: 3662 кб/с

Джерело озвучення:


Субтитри # 1-2 (Full, SDH):
мова: англійська
тип: програмні (м'які)
формат: *.srt
Info
Код:

General
Complete name                            : The Birdcatcher (2019) Remux 1080p [ukr, eng] [Video_Hurtom].
Format                                   :
Format version                           : Version 4
File size                                : 22.0 GiB
Duration                                 : 1 h 40 min
Overall bit rate mode                    : Variable
Overall bit rate                         : 31.4 Mb/s
Movie name                               : Птахолов / The Birdcatcher (2019)
Encoded date                             : UTC 2020-09-04 12:08:25
Writing application                      : v30.1.0 ('Forever And More') 64-bit
Writing library                          : libebml v1.3.6 + v1.4.9
Cover                                    : Yes
Attachments                              : cover.jpg

Video
ID                                       : 1
Format                                   : AVC
Format/Info                              : Advanced Video Codec
Format profile                           : [email protected]
Format settings                          : CABAC / 4 Ref Frames
Format settings, CABAC                   : Yes
Format settings, RefFrames               : 4 frames
Codec ID                                 : V_MPEG4/ISO/AVC
Duration                                 : 1 h 40 min
Bit rate mode                            : Variable
Bit rate                                 : 26.7 Mb/s
Maximum bit rate                         : 35.0 Mb/s
Width                                    : 1 920 pixels
Height                                   : 1 080 pixels
Display aspect ratio                     : 16:9
Frame rate mode                          : Constant
Frame rate                               : 23.976 (24000/1001) FPS
Color space                              : YUV
Chroma subsampling                       : 4:2:0
Bit depth                                : 8 bits
Scan type                                : Progressive
Bits/(Pixel*Frame)                       : 0.538
Stream size                              : 18.7 GiB (85%)
Language                                 : English
Default                                  : No
Forced                                   : No
Color range                              : Limited
Color primaries                          : BT.709
Transfer characteristics                 : BT.709
Matrix coefficients                      : BT.709

Audio #1
ID                                       : 2
Format                                   : AC-3
Format/Info                              : Audio Coding 3
Commercial name                          : Dolby Digital
Codec ID                                 : A_AC3
Duration                                 : 1 h 40 min
Bit rate mode                            : Constant
Bit rate                                 : 384 kb/s
Channel(s)                               : 6 channels
Channel layout                           : L R C LFE Ls Rs
Sampling rate                            : 48.0 kHz
Frame rate                               : 31.250 FPS (1536 SPF)
Bit depth                                : 16 bits
Compression mode                         : Lossy
Stream size                              : 275 MiB (1%)
Title                                    : 5.1 | 384
Language                                 : Ukrainian
Service kind                             : Complete Main
Default                                  : Yes
Forced                                   : No

Audio #2
ID                                       : 3
Format                                   : AC-3
Format/Info                              : Audio Coding 3
Commercial name                          : Dolby Digital
Codec ID                                 : A_AC3
Duration                                 : 1 h 40 min
Bit rate mode                            : Constant
Bit rate                                 : 640 kb/s
Channel(s)                               : 6 channels
Channel layout                           : L R C LFE Ls Rs
Sampling rate                            : 48.0 kHz
Frame rate                               : 31.250 FPS (1536 SPF)
Bit depth                                : 16 bits
Compression mode                         : Lossy
Stream size                              : 459 MiB (2%)
Title                                    : 5.1 | 640
Language                                 : English
Service kind                             : Complete Main
Default                                  : No
Forced                                   : No

Audio #3
ID                                       : 4
Format                                   : XLL
Format/Info                              : Digital Theater Systems
Commercial name                          : -HD Master Audio
Codec ID                                 : A_DTS
Duration                                 : 1 h 40 min
Bit rate mode                            : Variable
Bit rate                                 : 3 662 kb/s
Channel(s)                               : 6 channels
Channel layout                           : C L R Ls Rs LFE
Sampling rate                            : 48.0 kHz
Frame rate                               : 93.750 FPS (512 SPF)
Bit depth                                : 24 bits
Compression mode                         : Lossless
Stream size                              : 2.57 GiB (12%)
Title                                    : -HD MA 5.1 | 3662
Language                                 : English
Default                                  : No
Forced                                   : No

Text #1
ID                                       : 5
Format                                   : UTF-8
Codec ID                                 : S_TEXT/UTF8
Codec ID/Info                            : UTF-8 Plain Text
Duration                                 : 1 h 32 min
Bit rate                                 : 35 b/s
Count of elements                        : 943
Stream size                              : 23.9 KiB (0%)
Title                                    : Full
Language                                 : English
Default                                  : Yes
Forced                                   : No

Text #2
ID                                       : 6
Format                                   : UTF-8
Codec ID                                 : S_TEXT/UTF8
Codec ID/Info                            : UTF-8 Plain Text
Duration                                 : 1 h 39 min
Bit rate                                 : 43 b/s
Count of elements                        : 1234
Stream size                              : 31.4 KiB (0%)
Title                                    : SDH
Language                                 : English
Default                                  : No
Forced                                   : No

Menu
00:00:00.000                             : en:Chapter 01
00:09:50.214                             : en:Chapter 02
00:20:34.775                             : en:Chapter 03
00:29:48.620                             : en:Chapter 04
00:40:04.318                             : en:Chapter 05
00:50:30.819                             : en:Chapter 06
00:59:31.818                             : en:Chapter 07
01:10:40.361                             : en:Chapter 08
01:20:07.010                             : en:Chapter 09
01:30:13.199                             : en:Chapter 10
01:34:10.519                             : en:Chapter 11
Скріншоти






Подяка за постер : -Star-Lord-

Джерело:
Особиста оцінка: 0 - не дивився


Золотий реліз (завантажене не впливає на рейтинг)
 Трекер:    Зареєстрований   

Завантажити / скачати фільм українською



відео для новачків



 Зареєстрований:   2020-09-04 17:50
 Розмір:   22.03 GB 
 Оцінка фільму:   8.2/10 (Голосів: 6)
   
Інші релізи
   Птахолов / The Birdcatcher (2019) AVC Ukr/Eng | Sub Eng -_-B_Е_N_D_E_R-_-  1 / 0   1.84 GB   2020-09-05 23:15 
   Птахолов / The Birdcatcher (2019) 1080p Ukr/Eng | sub Eng antik_2008  9 / 0   12.28 GB   2020-09-04 14:36 
   Птахолов / The Birdcatcher (2019) antik_2008  10 / 0   1.45 GB   2020-09-04 13:48 
   Птахолов / The Birdcatcher (2019) 720p Ukr/Eng | sub Eng antik_2008  5 / 0   6.35 GB   2020-09-04 12:59 
-Star-Lord- 
VIP


З нами з: 09.08.18
Востаннє: 24.09.20
Повідомлень: 1993

2020-09-06 23:19  
Укр. постер
https://img.hurtom.com/i/2020/09/Coverfd80fa5e464eead6.jpg

Ваш часовий пояс: GMT + 2 Години

Нова тема   Відповісти