Птахолов / The Birdcatcher (2019) 1080p Ukr/Eng | sub Eng

Нові коментарі

Нова тема   Відповісти
Автор Повідомлення
Anonymous 







2020-09-04 14:36  
Птахолов / The Birdcatcher (2019) 1080p Ukr/Eng | sub Eng



Жанр: драма, історичний, трилер
Країна: Велика Британія, Норвегія



Кінокомпанія: Motion Picture Capital
Режисер: Росс Кларк
Актори: Аугуст Діль, Сара-Софі Буссніна, Якоб Седергрен, Лаура Бірн, Йоханнес Кунке, Андерс Босм Крістіансен, Йонас Хофф Офтебро, Артур Хакалахті, Крістофер Дейн, Тібо Ванденборре

Сюжет:
Після окупації Норвегії німцями Естер втратила батьків і була змушена бігти в ліси, щоб не опинитися в концентраційному таборі. Волею долі вона опиняється на віддаленій фермі, де їй доводиться зображати хлопчика, приховуючи свою особистість від власника-нациста.


Тривалість: 01:40:20
Якість: 1080p
Відео:
кодек:
розмір кадру: 1920x804
бітрейт: 16.5 мб/с

Аудіо # 1:
мова: українська
переклад: багатоголосий закадровий
кодек: 5.1
бітрейт: 384 кб/с

Аудіо # 2:
мова: англійська
переклад: оригінал
кодек: 5.1
бітрейт: 640 кб/с

Джерело озвучення:


Субтитри # 1-2 (Full, SDH):
мова: англійська
тип: програмні (м'які)
формат: *.srt
Info
Код:


General
Complete name                            : The Birdcatcher (2019) 1080p [ukr, eng].
Format                                   :
Format version                           : Version 4
File size                                : 12.3 GiB
Duration                                 : 1 h 40 min
Overall bit rate                         : 17.5 Mb/s
Movie name                               : Птахолов / The Birdcatcher (2019)
Encoded date                             : UTC 2020-09-04 11:12:25
Writing application                      : v30.1.0 ('Forever And More') 64-bit
Writing library                          : libebml v1.3.6 + v1.4.9
Cover                                    : Yes
Attachments                              : cover.jpg

Video
ID                                       : 1
Format                                   : AVC
Format/Info                              : Advanced Video Codec
Format profile                           : [email protected]
Format settings                          : CABAC / 5 Ref Frames
Format settings, CABAC                   : Yes
Format settings, RefFrames               : 5 frames
Codec ID                                 : V_MPEG4/ISO/AVC
Duration                                 : 1 h 40 min
Bit rate                                 : 16.5 Mb/s
Width                                    : 1 920 pixels
Height                                   : 804 pixels
Display aspect ratio                     : 2.40:1
Frame rate mode                          : Constant
Frame rate                               : 23.976 (24000/1001) FPS
Color space                              : YUV
Chroma subsampling                       : 4:2:0
Bit depth                                : 8 bits
Scan type                                : Progressive
Bits/(Pixel*Frame)                       : 0.446
Stream size                              : 11.6 GiB (94%)
Writing library                          : core 161 r3015+58M ~ Encoded by Mocunaman in Portugal
Encoding settings                        : cabac=1 / ref=5 / deblock=1:-3:-3 / analyse=0x3:0x113 / me=umh / subme=11 / psy=1 / fade_compensate=0.00 / psy_rd=1.00:0.00 / mixed_ref=1 / me_range=32 / chroma_me=1 / trellis=2 / 8x8dct=1 / cqm=0 / deadzone=21,11 / fast_pskip=0 / chroma_qp_offset=-2 / threads=25 / lookahead_threads=6 / sliced_threads=0 / nr=0 / decimate=0 / interlaced=0 / bluray_compat=0 / constrained_intra=0 / fgo=0 / bframes=14 / b_pyramid=2 / b_adapt=2 / b_bias=0 / direct=3 / weightb=1 / open_gop=0 / weightp=2 / keyint=250 / keyint_min=23 / scenecut=40 / intra_refresh=0 / rc_lookahead=60 / rc=crf / mbtree=0 / crf=17.6000 / qcomp=0.62 / qpmin=0:0:0 / qpmax=69:69:69 / qpstep=4 / vbv_maxrate=62500 / vbv_bufsize=78125 / crf_max=0.0 / nal_hrd=none / filler=0 / ip_ratio=1.30 / pb_ratio=1.20
Default                                  : Yes
Forced                                   : No
Color range                              : Limited
Color primaries                          : BT.709
Transfer characteristics                 : BT.709
Matrix coefficients                      : BT.709

Audio #1
ID                                       : 2
Format                                   : AC-3
Format/Info                              : Audio Coding 3
Commercial name                          : Dolby Digital
Codec ID                                 : A_AC3
Duration                                 : 1 h 40 min
Bit rate mode                            : Constant
Bit rate                                 : 384 kb/s
Channel(s)                               : 6 channels
Channel layout                           : L R C LFE Ls Rs
Sampling rate                            : 48.0 kHz
Frame rate                               : 31.250 FPS (1536 SPF)
Bit depth                                : 16 bits
Compression mode                         : Lossy
Stream size                              : 275 MiB (2%)
Title                                    : 5.1 | 384 | Itunes
Language                                 : Ukrainian
Service kind                             : Complete Main
Default                                  : Yes
Forced                                   : No

Audio #2
ID                                       : 3
Format                                   : AC-3
Format/Info                              : Audio Coding 3
Commercial name                          : Dolby Digital
Codec ID                                 : A_AC3
Duration                                 : 1 h 40 min
Bit rate mode                            : Constant
Bit rate                                 : 640 kb/s
Channel(s)                               : 6 channels
Channel layout                           : L R C LFE Ls Rs
Sampling rate                            : 48.0 kHz
Frame rate                               : 31.250 FPS (1536 SPF)
Bit depth                                : 16 bits
Compression mode                         : Lossy
Stream size                              : 459 MiB (4%)
Title                                    : 5.1 | 640 | Original
Language                                 : English
Service kind                             : Complete Main
Default                                  : No
Forced                                   : No

Text #1
ID                                       : 4
Format                                   : UTF-8
Codec ID                                 : S_TEXT/UTF8
Codec ID/Info                            : UTF-8 Plain Text
Duration                                 : 1 h 32 min
Bit rate                                 : 35 b/s
Count of elements                        : 943
Stream size                              : 23.9 KiB (0%)
Title                                    : Full
Language                                 : English
Default                                  : No
Forced                                   : No

Text #2
ID                                       : 5
Format                                   : UTF-8
Codec ID                                 : S_TEXT/UTF8
Codec ID/Info                            : UTF-8 Plain Text
Duration                                 : 1 h 39 min
Bit rate                                 : 43 b/s
Count of elements                        : 1234
Stream size                              : 31.4 KiB (0%)
Title                                    : SDH
Language                                 : English
Default                                  : No
Forced                                   : No

Menu
00:00:00.000                             : en:Chapter 01
00:09:50.335                             : en:Chapter 02
00:20:34.775                             : en:Chapter 03
00:29:48.615                             : en:Chapter 04
00:40:04.315                             : en:Chapter 05
00:50:30.819                             : en:Chapter 06
00:59:31.818                             : en:Chapter 07
01:10:40.361                             : en:Chapter 08
01:20:07.009                             : en:Chapter 09
01:30:13.198                             : en:Chapter 10
01:34:10.515                             : en:Chapter 11

Скріншоти






Подяка за постер : -Star-Lord-
Джерело:
Особиста оцінка: 0 - не дивився


 Трекер:    Зареєстрований   

Завантажити / скачати фільм українською



відео для новачків



 Зареєстрований:   2020-09-04 14:36
 Розмір:   12.28 GB 
 Оцінка фільму:   9.4/10 (Голосів: 5)
   
Інші релізи
   Птахолов / The Birdcatcher (2019) AVC Ukr/Eng | Sub Eng -_-B_Е_N_D_E_R-_-  10 / 1   1.84 GB   2020-09-05 23:15 
   Птахолов / The Birdcatcher (2019) Remux 1080p Ukr/Eng | sub Eng antik_2008  12 / 0   22.03 GB   2020-09-04 17:50 
   Птахолов / The Birdcatcher (2019) antik_2008  30 / 0   1.45 GB   2020-09-04 13:48 
   Птахолов / The Birdcatcher (2019) 720p Ukr/Eng | sub Eng antik_2008  10 / 1   6.35 GB   2020-09-04 12:59 
Ваш часовий пояс: GMT + 2 Години

Нова тема   Відповісти