Хлопаки (Сезон 2, серія 1) / The Boys (Season 2, episode 1) 720p Ukr/Eng

Нові коментарі

Нова тема   Відповісти
Автор Повідомлення
Цікава ідея 
VIP


З нами з: 25.12.11
Востаннє: 25.11.20
Повідомлень: 728

2020-09-04 12:51  
AVC | 720p | 1080p

Хлопаки (Сезон 2, серія 1) / The Boys (Season 2, episode 1) 720p Ukr/Eng


Хлопаки (Сезон 2, серія 1) / The Boys (Season 2, episode 1) 720p Ukr/Eng


Якщо вам сподобалося озвучення серіалу,
то ви можете підтримати нас за посиланням
ТИЦЬ


Жанр: бойовик, комедія, пародія, екшн, кримінальний
Країна: США



Кінокомпанія / телеканал: Sony Pictures Television, Amazon Studios
Режисери: Леннерц Крістофер
Актори: Карл Урбан, Джек Квід, Ентоні Стар, Ерін Моріарті, Домініка МакЕлліґот, Лаз Алонсо та інші.

Сюжет:
Дія серіалу розгортається в світі, де існують супергерої. Саме вони є справжніми зірками. Їх всі знають і люблять. Але за ідеальним фасадом ховається набагато похмуріший світ наркотиків і сексу, а більшість героїв - в житті не найприємніші люди. Протистоїть їм загін, неофіційно відомий як «Хлопаки».


Перекладено та озвучено ТО "Цікава Ідея"


Тривалість: 1 серія: ~ 60 хв. (цілком серій: 1/8)
Перелік серій:

01. The Big Ride
02. —
03. —
04. —
05. —
06. —
07. —
08. —
Якість: 720p
Відео:
кодек:
розмір кадру: 1248 x 520
бітрейт: ~ 4 000 кб/с

Аудіо # 1:
мова: українська | "Цікава Ідея"
переклад: професійний багатоголосий закадровий
кодек: 5.1
бітрейт: 448 кб/с

Аудіо # 2:
мова: англійська
переклад: оригінал
кодек: E- 5.1
бітрейт: 640 кб/с
Info
Код:
Format                      :
Format version              : Version 4
File size                   : 1.69 GiB
Duration                    : 1 h 2 min
Overall bit rate mode       : Constant
Overall bit rate            : 3 847 kb/s
Movie name                  : Хлопаки / The Boys - S02E01 (2020) 720p [Ukr.Eng] [Цікава Ідея]
Encoded date                : UTC 2020-09-04 20:02:05
Writing application         : v6.8.0 ('Theme for Great Cities') 32bit built on Mar  2 2014 21:27:07
Writing library             : libebml v1.3.0 + v1.4.1
Cover                       : Yes
Attachments                 : cover.jpg

Video
ID                          : 1
Format                      : AVC
Format/Info                 : Advanced Video Codec
Format profile              : [email protected]
Format settings             : CABAC / 4 Ref Frames
Format settings, CABAC      : Yes
Format settings, Reference  : 4 frames
Codec ID                    : V_MPEG4/ISO/AVC
Duration                    : 1 h 2 min
Bit rate mode               : Constant
Bit rate                    : 2 683 kb/s
Nominal bit rate            : 4 000 kb/s
Width                       : 1 248 pixels
Height                      : 520 pixels
Display aspect ratio        : 2.40:1
Frame rate mode             : Constant
Frame rate                  : 23.976 (24000/1001) FPS
Color space                 : YUV
Chroma subsampling          : 4:2:0
Bit depth                   : 8 bits
Scan type                   : Progressive
Bits/(Pixel*Frame)          : 0.172
Stream size                 : 1.18 GiB (70%)
Default                     : Yes
Forced                      : No
Color range                 : Limited
Color primaries             : BT.709
Transfer characteristics    : BT.709
Matrix coefficients         : BT.709

Audio #1
ID                          : 2
Format                      : AC-3
Format/Info                 : Audio Coding 3
Commercial name             : Dolby Digital
Codec ID                    : A_AC3
Duration                    : 1 h 2 min
Bit rate mode               : Constant
Bit rate                    : 448 kb/s
Channel(s)                  : 6 channels
Channel layout              : L R C LFE Ls Rs
Sampling rate               : 48.0 kHz
Frame rate                  : 31.250 FPS (1536 SPF)
Bit depth                   : 16 bits
Compression mode            : Lossy
Stream size                 : 202 MiB (12%)
Title                       : Цікава Ідея
Language                    : Ukrainian
Service kind                : Complete Main
Default                     : Yes
Forced                      : No

Audio #2
ID                          : 3
Format                      : E-AC-3
Format/Info                 : Enhanced AC-3
Commercial name             : Dolby Digital Plus
Codec ID                    : A_EAC3
Duration                    : 1 h 2 min
Bit rate mode               : Constant
Bit rate                    : 640 kb/s
Channel(s)                  : 6 channels
Channel layout              : L R C LFE Ls Rs
Sampling rate               : 48.0 kHz
Frame rate                  : 31.250 FPS (1536 SPF)
Compression mode            : Lossy
Stream size                 : 288 MiB (17%)
Title                       : Original
Language                    : English
Service kind                : Complete Main
Default                     : No
Forced                      : No
Скріншоти



Перекладено та озвучено творчим об'єднанням:


Авторський реліз (завантажувати можна без реєстрації)
 Трекер:    Зареєстрований   

Завантажити / скачати серіал українською



відео для новачків



 Зареєстрований:   2020-09-05 00:49
 Розмір:   1.69 GB 
 Оцінка серіалу:   10/10 (Голосів: 10)
   
qarty1 
VIP


З нами з: 01.11.09
Востаннє: 24.11.20
Повідомлень: 398

2020-09-04 16:09  
зробіть з матами як в оригіналі
SacredName 
Попереджень: 1
Попереджень: 1 


З нами з: 01.01.17
Востаннє: 24.11.20
Повідомлень: 151

2020-09-04 20:42  
Можна знімати як Хранителі, Зака Снайдера, а можна - як ОЦЕ.
Примітивний сюжет антиутопічного характеру, сюжет розвалюється на шматки, мотивація головних героїв незрозуміла. Наприклад зав'язка першого сезону - ГГ приходить до француза котрому винен гроші. Діалог:
Фр - ти винен мені гроші, вали на....
ГГ - я хочу завалити супера
Фр - (розворот 180) ну шо ж ти зразу не сказав (пристрасно довбляться в десна)

прикладів навести можна тищу.

прикро що хороші шоу скасовують, а натуралів, пацанів, ріка і морті тримають в ефірі...
за це нам і послана корона.

Leyni 
Новенький


З нами з: 12.05.12
Востаннє: 22.11.20
Повідомлень: 4

2020-09-04 22:46  
SacredName написано:

Наприклад зав'язка першого сезону - ГГ приходить до француза котрому винен гроші. Діалог:
Фр - ти винен мені гроші, вали на....
ГГ - я хочу завалити супера
Фр - (розворот 180) ну шо ж ти зразу не сказав (пристрасно довбляться в десна)

Ну зрозуміло ж що супери щось зробили Французу та і всім іншим другорядним героям, можливо що саме взнаємо у 2 сезоні.

don pedro 
Попереджень: 1
Попереджень: 1 


З нами з: 29.06.11
Востаннє: 25.11.20
Повідомлень: 18165

2020-09-04 22:54  
SacredName написано:
Можна знімати як Хранителі, Зака Снайдера,

На щастя, цей серіал не знімали, як той фільм.

bot 
робот


З нами з: 30.09.07
Востаннє: 26.05.05
Повідомлень: 26355

2020-09-05 00:49  
Тему перенесено з Анонси релізів до форуму Серіали в HD


Цікава ідея

Цікава ідея 
VIP


З нами з: 25.12.11
Востаннє: 25.11.20
Повідомлень: 728

2020-09-05 00:51  
Друзі, насолоджуйтесь якісним перекладом.


Бажаємо всім приємного перегляду!

Drevlen 
Новенький


З нами з: 05.07.11
Востаннє: 24.11.20
Повідомлень: 11

2020-09-05 17:44  
В коміксі персонажі подібним же чином появляються.
Радше в екранізації краще пророблена "Жінка".
Це першоджерело таке, а не адаптація.

Nikko033 
VIP


З нами з: 31.12.12
Востаннє: 24.11.20
Повідомлень: 628

2020-09-05 20:47  
SacredName написано:
за це нам і послана корона.

що ви мелете??

SacredName 
Попереджень: 1
Попереджень: 1 


З нами з: 01.01.17
Востаннє: 24.11.20
Повідомлень: 151

2020-09-06 08:22  
Nikko033
Це називають сарказмом, вам не зрозуміти.

А якщо розібратися, суттю тих процесів які зараз відбуваються є отупіння і бажання споживання.
Що в продуктах, що в контенті.

Більшості тут ближче до 30 ніж до 20 років. Як вони можуть перетравити такий сюжет. Та й попросити добавки ...

don pedro 
Попереджень: 1
Попереджень: 1 


З нами з: 29.06.11
Востаннє: 25.11.20
Повідомлень: 18165

2020-09-06 09:37  
Nikko033 написано:
що ви мелете??

Ви чекали чогось мудрого від користувача, який назвався "СвященнеІм'я"/"SacredName" та якимсь кулеметником в якості ави?

SacredName 
Попереджень: 1
Попереджень: 1 


З нами з: 01.01.17
Востаннє: 24.11.20
Повідомлень: 151

2020-09-08 13:07  
don pedro написано:
СвященнеІм'я"/"SacredName

А ти про Warhammer 40,000 не чув? Цей фентезі всесвіт куди більший і популярніший за "відьмака".
Він мабуть більший за сам LOTR

Бог-Імператор в шоці з того який ти темний


Bentakor 
Новенький


З нами з: 23.03.18
Востаннє: 24.11.20
Повідомлень: 4

2020-09-09 19:48  
SacredName написано:
А ти про Warhammer 40,000 не чув? Цей фентезі всесвіт

40к не фентезі.

SacredName 
Попереджень: 1
Попереджень: 1 


З нами з: 01.01.17
Востаннє: 24.11.20
Повідомлень: 151

2020-09-09 20:07  
Bentakor
Я включив і Warhammer Fantasy Battle... щоб точно
А якщо насправді, це вже не настолка... не називати його ж франшизою?
Чи може всесвітом Warhammer?

ПС

Знайшов таке... космоопера

Скажи кому - вб'ють!!! космоопера ЛОЛ

Цікава ідея 
VIP


З нами з: 25.12.11
Востаннє: 25.11.20
Повідомлень: 728

2020-09-09 20:09  
SacredName
Бан за офтоп ще існує на Толоці?

SacredName 
Попереджень: 1
Попереджень: 1 


З нами з: 01.01.17
Востаннє: 24.11.20
Повідомлень: 151

2020-09-09 20:12  
Цікава ідея
Пробачте

bulldozzerr 
Свій


З нами з: 19.07.11
Востаннє: 21.09.20
Повідомлень: 66

2020-09-18 00:45  
SacredName написано:

Примітивний сюжет антиутопічного характеру, сюжет розвалюється на шматки, мотивація головних героїв незрозуміла. Наприклад зав'язка першого сезону - ГГ приходить до француза котрому винен гроші. Діалог:
Фр - ти винен мені гроші, вали на....
ГГ - я хочу завалити супера
Фр - (розворот 180) ну шо ж ти зразу не сказав (пристрасно довбляться в десна)

прикладів навести можна тищу.

Француз теж має за що мститися Супсам, раз. А два - він казав потім, що за голову супсів непогано заплотять... Жодної алогічності в мотиваціях персонажів не бачу. Якщо уважно дивитися серіал. Сюжет рівний, послідовний, персонажі досить розкриті і діють відповідно своїх міркувань та логіки. Звісно не беру до уваги нелогічні вчинки деяких неадекватів - на те вони і неадеквати...

Ваш часовий пояс: GMT + 2 Години

Нова тема   Відповісти