Тропічний ліс: Історія долини папороті / FernGully: The Last Rainforest (1992) 1080p 2xUkr/Eng | Sub Eng

Нові коментарі

Нова тема   Відповісти
Автор Повідомлення
Alukret 
Свій


З нами з: 11.06.14
Востаннє: 28.02.21
Повідомлень: 111

2020-09-04 00:39  
Тропічний ліс: Історія долини папороті / FernGully: The Last Rainforest (1992) 1080p 2xUkr/Eng | Sub Eng

Тропічний ліс: Історія долини папороті / FernGully: The Last Rainforest (1992) 1080p 2xUkr/Eng | Sub Eng


Жанр: анімація, фентезі, пригодницький, сімейний
Країна: Австралія, США



Кінокомпанія: FAI Films, Kroyer Films, Youngheart Productions
Режисер: Білл Кроєр / Bill Kroyer
Ролі озвучують: Тім Керрі / Tim Curry, Саманта Метіс / Samantha Mathis, Крістіан Слейтер / Christian Slaterp, Джонатан Ворд / Jonathan Ward, Робін Вільямс / Robin Williams, Ґрейс Забріскі / Grace Zabriskie, Джеффрі Блейк / Geoffrey Blake, Роберт Пастореллі / Robert Pastorelli та інші

Сюжет:
Гексус - злий дух. Його завдання - заподіювати біль і страждання. Він з'явився з розжареного ядра Землі і почав винищувати казково гарний тропічний ліс, населений милими містичними істотами. Тільки об'єднавшись і звернувши свої благання до магічних сил природи, жителям лісу вдалося ув'язнити Гексуса в одне з дерев. Але невдовзі звірятка знову зіштовхуються зі смертельною небезпекою, яка на цей раз прийшла від людей, що займаються вирубкою лісів. Своїми потужними бульдозерами люди зносять вікові дерева, не підозрюючи про те, що в одному з них своєї години чекає найпотужніша безжальна сила, що несе смерть всьому живому. Але наші маленькі герої проявляють дива кмітливості і з гумором розправляються з усіма своїми кривдниками.


Тривалість: 01:15:53
Якість:
Відео:
кодек:
розмір кадру: 1920 х 1040
бітрейт: 17100 кб/с

Аудіо # 1:
мова: українська
переклад: двоголосий закадровий
кодек: 2.0
бітрейт: 192 кб/с

Аудіо # 2:
мова: українська
переклад: двоголосий закадровий
кодек: 2.0
бітрейт: 192 кб/с

Аудіо # 3:
мова: англійська
переклад: оригінал
кодек: 5.1
бітрейт: 448 кб/с

Субтитри # 1-2 (Full, SDH):
мова: англійська
тип: програмні (м'які)
формат: *.srt
Info
Код:

General
Unique ID                                : 54307851209743342489273008773773747225 (0x28DB4FCAA7A22EDEA86923031C1D6419)
Complete name                            : D:\Movies\FernGully. The Last Rainforest (1992)\FernGully. The Last Rainforest (1992) 1080p [UKR_ENG] [Hurtom].
Format                                   :
Format version                           : Version 4
File size                                : 9.48 GiB
Duration                                 : 1 h 15 min
Overall bit rate                         : 17.9 Mb/s
Movie name                               : FernGully. The Last Rainforest (1992) 1080p [UKR_ENG] [Hurtom]
Encoded date                             : UTC 2020-09-03 22:17:49
Writing application                      : v44.0.0 ('Domino') 64-bit
Writing library                          : libebml v1.3.10 + v1.5.2

Video
ID                                       : 1
Format                                   : AVC
Format/Info                              : Advanced Video Codec
Format profile                           : [email protected]
Format settings                          : CABAC / 4 Ref Frames
Format settings, CABAC                   : Yes
Format settings, Reference frames        : 4 frames
Codec ID                                 : V_MPEG4/ISO/AVC
Duration                                 : 1 h 15 min
Bit rate                                 : 17.1 Mb/s
Width                                    : 1 920 pixels
Height                                   : 1 040 pixels
Display aspect ratio                     : 1.85:1
Frame rate mode                          : Constant
Frame rate                               : 23.976 (24000/1001) FPS
Color space                              : YUV
Chroma subsampling                       : 4:2:0
Bit depth                                : 8 bits
Scan type                                : Progressive
Bits/(Pixel*Frame)                       : 0.356
Stream size                              : 9.04 GiB (95%)
Title                                    : AVC / / 1080p / 16700 kbps
Writing library                          : core 122 r2184 5c85e0a
Encoding settings                        : cabac=1 / ref=4 / deblock=1:-2:-2 / analyse=0x3:0x113 / me=umh / subme=10 / psy=1 / psy_rd=0.50:0.00 / mixed_ref=1 / me_range=48 / chroma_me=1 / trellis=2 / 8x8dct=1 / cqm=0 / deadzone=21,11 / fast_pskip=1 / chroma_qp_offset=-2 / threads=18 / sliced_threads=0 / nr=0 / decimate=1 / interlaced=0 / bluray_compat=0 / constrained_intra=0 / bframes=9 / b_pyramid=2 / b_adapt=2 / b_bias=0 / direct=1 / weightb=1 / open_gop=0 / weightp=2 / keyint=240 / keyint_min=23 / scenecut=40 / intra_refresh=0 / rc_lookahead=60 / rc=crf / mbtree=1 / crf=18.0 / qcomp=0.65 / qpmin=0 / qpmax=69 / qpstep=4 / vbv_maxrate=50000 / vbv_bufsize=62500 / crf_max=0.0 / nal_hrd=none / ip_ratio=1.40 / aq=1:0.60
Default                                  : Yes
Forced                                   : No
Color range                              : Limited
Matrix coefficients                      : BT.709

Audio #1
ID                                       : 2
Format                                   : AC-3
Format/Info                              : Audio Coding 3
Commercial name                          : Dolby Digital
Codec ID                                 : A_AC3
Duration                                 : 1 h 15 min
Bit rate mode                            : Constant
Bit rate                                 : 192 kb/s
Channel(s)                               : 2 channels
Channel layout                           : L R
Sampling rate                            : 48.0 kHz
Frame rate                               : 31.250 FPS (1536 SPF)
Bit depth                                : 16 bits
Compression mode                         : Lossy
Stream size                              : 104 MiB (1%)
Title                                    : AC-3 / 2.0 / 192 kbps / DVO / 1+1
Language                                 : Ukrainian
Service kind                             : Complete Main
Default                                  : Yes
Forced                                   : No

Audio #2
ID                                       : 3
Format                                   : AC-3
Format/Info                              : Audio Coding 3
Commercial name                          : Dolby Digital
Codec ID                                 : A_AC3
Duration                                 : 1 h 15 min
Bit rate mode                            : Constant
Bit rate                                 : 192 kb/s
Channel(s)                               : 2 channels
Channel layout                           : L R
Sampling rate                            : 48.0 kHz
Frame rate                               : 31.250 FPS (1536 SPF)
Bit depth                                : 16 bits
Compression mode                         : Lossy
Stream size                              : 104 MiB (1%)
Title                                    : AC-3 / 2.0 / 192 kbps / DVO / Новий канал
Language                                 : Ukrainian
Service kind                             : Complete Main
Default                                  : No
Forced                                   : No

Audio #3
ID                                       : 4
Format                                   : AC-3
Format/Info                              : Audio Coding 3
Commercial name                          : Dolby Digital
Codec ID                                 : A_AC3
Duration                                 : 1 h 15 min
Bit rate mode                            : Constant
Bit rate                                 : 448 kb/s
Channel(s)                               : 6 channels
Channel layout                           : L R C LFE Ls Rs
Sampling rate                            : 48.0 kHz
Frame rate                               : 31.250 FPS (1536 SPF)
Bit depth                                : 16 bits
Compression mode                         : Lossy
Stream size                              : 243 MiB (3%)
Title                                    : AC-3 / 5.1 / 448 kbps
Language                                 : English
Service kind                             : Complete Main
Default                                  : No
Forced                                   : No

Text #1
ID                                       : 5
Format                                   : UTF-8
Codec ID                                 : S_TEXT/UTF8
Codec ID/Info                            : UTF-8 Plain Text
Duration                                 : 1 h 14 min
Bit rate                                 : 46 b/s
Count of elements                        : 773
Stream size                              : 25.5 KiB (0%)
Title                                    : Full
Language                                 : English
Default                                  : No
Forced                                   : No

Text #2
ID                                       : 6
Format                                   : UTF-8
Codec ID                                 : S_TEXT/UTF8
Codec ID/Info                            : UTF-8 Plain Text
Duration                                 : 1 h 15 min
Bit rate                                 : 52 b/s
Count of elements                        : 903
Stream size                              : 29.1 KiB (0%)
Title                                    : SDH
Language                                 : English
Default                                  : Yes
Forced                                   : No

Menu
00:00:00.000                             : en:Magi's Secrets (Titles)
00:03:19.073                             : en:Life Is a Magic Thing
00:04:49.831                             : en:Above the Canopy
00:06:34.852                             : en:The Web of Life
00:09:12.677                             : en:Batty Koda
00:11:27.728                             : en:Batty Rap
00:15:18.751                             : en:The Painted Trees
00:18:55.300                             : en:Fairy Size
00:23:27.823                             : en:If I'm Gonna Eat Somebody (It Might As Well Be You)
00:26:58.283                             : en:Hexxus
00:30:53.434                             : en:Taking Over
00:32:51.844                             : en:Toxic Love
00:35:45.268                             : en:Communication
00:39:26.447                             : en:A Human in Ferngully
00:42:58.659                             : en:Land of a Thousand Dances
00:45:46.702                             : en:A Dream Worth Keeping
00:49:01.355                             : en:An Unnatural Force
00:53:27.704                             : en:The Powers of Nature
00:57:58.391                             : en:Hexxus Attacks
00:59:48.543                             : en:Stopping the Leveler
01:03:26.052                             : en:Crysta's New Power
01:05:50.696                             : en:Going Back
01:08:09.043                             : en:New Life
01:10:35.689                             : en:End Titles

Скріншоти


Джерело:
Особиста оцінка: 9 - давно не бачив настільки якісне кіно


Срібний реліз (на рейтинг впливає 50% завантаженого)
 Трекер:    Зареєстрований   

Завантажити / скачати мультфільм українською



відео для новачків



 Зареєстрований:   2020-09-04 00:39
 Розмір:   9.48 GB 
 Оцінка мультфільму:   9.9/10 (Голосів: 7)
   
bot 
робот


З нами з: 30.09.07
Востаннє: 26.05.05
Повідомлень: 27274

2020-09-15 13:01  
Тему перенесено з Мультфільми до форуму Мультфільми в HD


Alukret

Ваш часовий пояс: GMT + 2 Години

Нова тема   Відповісти