Всі кажуть: Я кохаю тебе / Everyone Says I Love You (1996) 1080p Ukr/Eng | Sub Eng

Нові коментарі

Нова тема   Відповісти
Автор Повідомлення
Alukret 
Свій


З нами з: 11.06.14
Востаннє: 30.09.20
Повідомлень: 77

2020-09-04 00:42  
Всі кажуть: Я кохаю тебе / Everyone Says I Love You (1996) 1080p Ukr/Eng | Sub Eng

Всі кажуть: Я кохаю тебе / Everyone Says I Love You (1996) 1080p Ukr/Eng | Sub Eng


Жанр: комедія, музичний, романтичний
Країна: США



Кінокомпанія: Miramax Films, Buena Vista Pictures, Magnolia Productions
Режисер: Вуді Аллен (Woody Allen)
Актори: Едвард Нортон (Edward Norton), Дрю Беррімор (Drew Barrymore), Діва Грей (Diva Gray), Емі Альмендрал (Ami Almendral), Мадлен Бальмаседа (Madeline Balmaceda), Вівіан Черрі (Vivian Cherry), Томмі Бакстер (Tommie Baxter), Джеф ДеРокер (Jeff DeRocker), Шерілін Джонс (Cherylyn Jones), Тіна Пол (Tina Paul), Віккі Шнурр (Vikki Schnurr), Наташа Леонне (Natasha Lyonne), Кевін Хейген (Kevin Hagan), Алан Алда (Alan Alda), Гебі Гоффманн (Gaby Hoffmann), Вуді Аллен (Woody Allen)

Сюжет:
Музична романтична комедія, знята Вуді Аленом у дусі класичних американських мюзиклів. Чарівною особливістю фільму, що вносить у нього пристойну частку гумору, є те, що ніхто з його зіркового складу не співає.
Дія фільму переноситься з Нью-Йорку то до Венеції, то до Парижа і назад, а в сюжеті приймають участь персонажі, пов'язані один з одним родинними, подружніми та дружніми відносинами.


Тривалість: 01:40:49
Якість:
Відео:
кодек:
розмір кадру: 1920 х 1080
бітрейт: 10,2 Мб/с

Аудіо # 1:
мова: українська
переклад: багатоголосий закадровий — студія "Star Master"
кодек: AC-3 5.1
бітрейт: 384 кб/с

Аудіо # 2:
мова: англійська
переклад: оригінал
кодек: AC-3 5.1
бітрейт: 448 кб/с

Субтитри (Full):
мова: англійська
тип: програмні (м'які)
формат: *.srt
Info
Код:
General
Unique ID                                : 151922216817576107843815588611778722290 (0x724B2797B5D87CD16FF29BF65B18B9F2)
Complete name                            : Everyone Says I Love You (1996) 1080p [UKR_ENG] [Hurtom].
Format                                   :
Format version                           : Version 4
File size                                : 7.78 GiB
Duration                                 : 1 h 40 min
Overall bit rate                         : 11.0 Mb/s
Movie name                               : Everyone Says I Love You (1996) 1080p [UKR_ENG] [Hurtom]
Encoded date                             : UTC 2020-09-03 21:18:28
Writing application                      : v44.0.0 ('Domino') 64-bit
Writing library                          : libebml v1.3.10 + v1.5.2

Video
ID                                       : 1
Format                                   : AVC
Format/Info                              : Advanced Video Codec
Format profile                           : [email protected]
Format settings                          : CABAC / 4 Ref Frames
Format settings, CABAC                   : Yes
Format settings, Reference frames        : 4 frames
Codec ID                                 : V_MPEG4/ISO/AVC
Duration                                 : 1 h 40 min
Bit rate                                 : 10.2 Mb/s
Width                                    : 1 920 pixels
Height                                   : 1 080 pixels
Display aspect ratio                     : 16:9
Frame rate mode                          : Constant
Frame rate                               : 24.000 FPS
Color space                              : YUV
Chroma subsampling                       : 4:2:0
Bit depth                                : 8 bits
Scan type                                : Progressive
Bits/(Pixel*Frame)                       : 0.205
Stream size                              : 7.19 GiB (92%)
Title                                    : AVC / / 1080p / 10200 kbps
Writing library                          : core 157 r2969 d4099dd
Encoding settings                        : cabac=1 / ref=4 / deblock=1:-1:-1 / analyse=0x3:0x133 / me=hex / subme=9 / psy=1 / psy_rd=1.00:0.15 / mixed_ref=1 / me_range=16 / chroma_me=1 / trellis=2 / 8x8dct=1 / cqm=0 / deadzone=21,11 / fast_pskip=0 / chroma_qp_offset=-3 / threads=6 / lookahead_threads=1 / sliced_threads=0 / nr=0 / decimate=1 / interlaced=0 / bluray_compat=0 / constrained_intra=0 / bframes=3 / b_pyramid=2 / b_adapt=2 / b_bias=0 / direct=3 / weightb=1 / open_gop=0 / weightp=2 / keyint=240 / keyint_min=23 / scenecut=40 / intra_refresh=0 / rc_lookahead=60 / rc=crf / mbtree=1 / crf=21.0 / qcomp=0.60 / qpmin=0 / qpmax=69 / qpstep=4 / vbv_maxrate=31250 / vbv_bufsize=31250 / crf_max=0.0 / nal_hrd=none / filler=0 / ip_ratio=1.40 / aq=1:1.00
Default                                  : Yes
Forced                                   : No

Audio #1
ID                                       : 2
Format                                   : AC-3
Format/Info                              : Audio Coding 3
Commercial name                          : Dolby Digital
Codec ID                                 : A_AC3
Duration                                 : 1 h 40 min
Bit rate mode                            : Constant
Bit rate                                 : 384 kb/s
Channel(s)                               : 6 channels
Channel layout                           : L R C LFE Ls Rs
Sampling rate                            : 48.0 kHz
Frame rate                               : 31.250 FPS (1536 SPF)
Bit depth                                : 16 bits
Compression mode                         : Lossy
Stream size                              : 277 MiB (3%)
Title                                    : AC-3 / 5.1 / 384 kbps / MVO / StarMaster
Language                                 : Ukrainian
Service kind                             : Complete Main
Default                                  : Yes
Forced                                   : No

Audio #2
ID                                       : 3
Format                                   : AC-3
Format/Info                              : Audio Coding 3
Commercial name                          : Dolby Digital
Codec ID                                 : A_AC3
Duration                                 : 1 h 40 min
Bit rate mode                            : Constant
Bit rate                                 : 448 kb/s
Channel(s)                               : 6 channels
Channel layout                           : L R C LFE Ls Rs
Sampling rate                            : 48.0 kHz
Frame rate                               : 31.250 FPS (1536 SPF)
Bit depth                                : 16 bits
Compression mode                         : Lossy
Stream size                              : 323 MiB (4%)
Title                                    : AC-3 / 5.1 / 448 kbps
Language                                 : English
Service kind                             : Complete Main
Default                                  : No
Forced                                   : No

Text
ID                                       : 4
Format                                   : UTF-8
Codec ID                                 : S_TEXT/UTF8
Codec ID/Info                            : UTF-8 Plain Text
Duration                                 : 1 h 34 min
Bit rate                                 : 94 b/s
Count of elements                        : 1543
Stream size                              : 65.1 KiB (0%)
Title                                    : Full
Language                                 : English
Default                                  : No
Forced                                   : No

Скріншоти


Джерело: &
Подяка пані SweetN за звукову доріжку.

Особиста оцінка: 9 - давно не бачив настільки якісне кіно


Срібний реліз (на рейтинг впливає 50% завантаженого)
 Трекер:    Зареєстрований   

Завантажити / скачати фільм українською



відео для новачків



 Зареєстрований:   2020-09-04 00:42
 Розмір:   7.78 GB 
 Оцінка фільму:   6.7/10 (Голосів: 3)
   
Ваш часовий пояс: GMT + 2 Години

Нова тема   Відповісти