Прекрасний новий світ (Сезон 1) / Brave New World (Season 1) (2020) AVC Ukr/Eng

Нові коментарі

Нова тема   Відповісти
Автор Повідомлення
Цікава ідея 
VIP


З нами з: 26.12.11
Востаннє: 20.09.20
Повідомлень: 663

2020-09-03 20:24  
AVC | 1080p

Прекрасний новий світ (Сезон 1) / Brave New World (Season 1) (2020) AVC Ukr/Eng


Прекрасний новий світ (Сезон 1) / Brave New World (Season 1) (2020) AVC Ukr/Eng


Якщо вам сподобалося озвучення серіалу,
то ви можете підтримати нас за посиланням
ТИЦЬ


Жанр: фантастика, драма
Країна: США



Кінокомпанія / телеканал: Amblin Television, NBCUniversal Content Studios, Universal Content Productions (UCP)
Режисери: Оуен Гарріс, Іфа МакАрдл, Андрій Парекх
Актори: Олден Еренрайк, Джессіка Браун-Фіндлі, Гаррі Ллойд, Ніна Сосанья, Джозеф Морган, Кайлі Банбері, Сен Міцудзі, Ханна Джон-Кеймен та інші

Сюжет:
XXVI століття, ідеальний світ майбутнього. Тут всі належать всім, споживання зведено в культ, люди народжуються в інкубаторах і вмирають без хвороб і старості - а головне, кожен відчуває себе на вершині блаженства завдяки спеціальній таблетці. Синтетичну гармонію порушує незвичайна людина ззовні, і перед жителями прекрасного нового світу постає небезпечне питання - чи правильний шлях до щастя вони вибрали.


Перекладено та озвучено ТО "Цікава Ідея" за підтримки fishMD


Тривалість: 1 серія: ~ 48 хв. (цілком серій: 9)
Перелік серій:

01. Pilot
02. Want & Consequence
03. Everybody Happy Now!
04. Swallow
05. Firefall
06. In the Dirt
07. Monogamy and Futility, Part 1
08. Monogamy and Futility, Part 2
09. Soma Red
Якість: AVC
Відео:
кодек:
розмір кадру: 720 x 360
бітрейт: ~ 1 100 кб/с

Аудіо # 1:
мова: українська | "Цікава Ідея"
переклад: професійний багатоголосий закадровий
кодек: 5.1
бітрейт: 448 кб/с

Аудіо # 2:
мова: англійська
переклад: оригінал
кодек: E- 5.1
бітрейт: 192 кб/с
Info
Код:
Format                      :
Format version              : Version 4
File size                   : 597 MiB
Duration                    : 48 min 27 s
Overall bit rate            : 1 722 kb/s
Movie name                  : Прекрасний новий світ / Brave New World - S01E01 (2020) AVC [Ukr.Eng] [Цікава Ідея]
Encoded date                : UTC 2020-09-03 14:02:11
Writing application         : v6.8.0 ('Theme for Great Cities') 32bit built on Mar  2 2014 21:27:07
Writing library             : libebml v1.3.0 + v1.4.1
Cover                       : Yes
Attachments                 : cover.jpg

Video
ID                          : 1
Format                      : AVC
Format/Info                 : Advanced Video Codec
Format profile              : [email protected]
Format settings             : CABAC / 5 Ref Frames
Format settings, CABAC      : Yes
Format settings, Reference  : 5 frames
Codec ID                    : V_MPEG4/ISO/AVC
Duration                    : 48 min 27 s
Bit rate                    : 1 048 kb/s
Nominal bit rate            : 1 100 kb/s
Width                       : 720 pixels
Height                      : 360 pixels
Display aspect ratio        : 2.000
Frame rate mode             : Constant
Frame rate                  : 23.976 (24000/1001) FPS
Color space                 : YUV
Chroma subsampling          : 4:2:0
Bit depth                   : 8 bits
Scan type                   : Progressive
Bits/(Pixel*Frame)          : 0.169
Stream size                 : 363 MiB (61%)
Writing library             : core 148 r2795M aaa9aa8
Encoding settings           : cabac=1 / ref=5 / deblock=1:-1:-1 / analyse=0x3:0x113 / me=umh / subme=9 / psy=1 / psy_rd=1.00:0.15 / mixed_ref=1 / me_range=16 / chroma_me=1 / trellis=2 / 8x8dct=1 / cqm=0 / deadzone=21,11 / fast_pskip=1 / chroma_qp_offset=-3 / threads=24 / lookahead_threads=2 / sliced_threads=0 / nr=0 / decimate=1 / interlaced=0 / bluray_compat=0 / constrained_intra=0 / bframes=3 / b_pyramid=2 / b_adapt=2 / b_bias=0 / direct=3 / weightb=1 / open_gop=0 / weightp=2 / keyint=250 / keyint_min=23 / scenecut=40 / intra_refresh=0 / rc_lookahead=50 / rc=abr / mbtree=1 / bitrate=1100 / ratetol=1.0 / qcomp=0.60 / qpmin=0 / qpmax=69 / qpstep=4 / ip_ratio=1.40 / aq=1:1.00
Default                     : Yes
Forced                      : No

Audio #1
ID                          : 2
Format                      : AC-3
Format/Info                 : Audio Coding 3
Commercial name             : Dolby Digital
Codec ID                    : A_AC3
Duration                    : 48 min 27 s
Bit rate mode               : Constant
Bit rate                    : 448 kb/s
Channel(s)                  : 6 channels
Channel layout              : L R C LFE Ls Rs
Sampling rate               : 48.0 kHz
Frame rate                  : 31.250 FPS (1536 SPF)
Bit depth                   : 16 bits
Compression mode            : Lossy
Stream size                 : 155 MiB (26%)
Title                       : Цікава Ідея
Language                    : Ukrainian
Service kind                : Complete Main
Default                     : Yes
Forced                      : No

Audio #2
ID                          : 3
Format                      : E-AC-3
Format/Info                 : Enhanced AC-3
Commercial name             : Dolby Digital Plus
Codec ID                    : A_EAC3
Duration                    : 48 min 27 s
Bit rate mode               : Constant
Bit rate                    : 192 kb/s
Channel(s)                  : 6 channels
Channel layout              : L R C LFE Ls Rs
Sampling rate               : 48.0 kHz
Frame rate                  : 31.250 FPS (1536 SPF)
Compression mode            : Lossy
Delay relative to video     : 24 ms
Stream size                 : 66.5 MiB (11%)
Title                       : Original
Language                    : English
Service kind                : Complete Main
Default                     : No
Forced                      : No
Скріншоти



Перекладено та озвучено творчим об'єднанням:


Авторський реліз (завантажувати можна без реєстрації)
 Трекер:    Зареєстрований   

Завантажити / скачати серіал українською



відео для новачків



 Зареєстрований:   2020-09-03 20:24
 Розмір:   5.08 GB 
 Оцінка серіалу:   9.4/10 (Голосів: 24)
   
midnight_man 
Свій


З нами з: 13.10.09
Востаннє: 20.09.20
Повідомлень: 125

2020-09-04 18:28  
Прикольний серіал, нова ідея. Рекомендую переглянути.
Нагадую сойку-пересмішницю.

anarchistkit 
Новенький


З нами з: 30.10.11
Востаннє: 11.09.20
Повідомлень: 1

2020-09-04 18:55  
midnight_man
Я, звичайно, перепрошую!
Але ідея ніби не нова. Олдос Гакслі написав в 1932 ще

Temlees 
Поважний учасник


З нами з: 22.05.15
Востаннє: 20.09.20
Повідомлень: 157

2020-09-04 23:17  
Проблема тієї утопії, в якій зараз живемо, полягає в тому, що ми не здатні сприймати дійсність без якогось певного протистояння сил "зла і добра", на відміну від тієї утопії, що було зображено Олдосом Гакслі.
Завзята 
Свій


З нами з: 10.12.15
Востаннє: 18.09.20
Повідомлень: 66

2020-09-05 20:31  
Гадаю, в описі треба вказати, що серіал знято за мотивами роману Олдоса Гакслі
vavlap 
Свій


З нами з: 24.01.15
Востаннє: 18.09.20
Повідомлень: 128

2020-09-11 22:04  
Temlees написано:
Проблема тієї утопії, в якій зараз живемо, полягає в тому, що ми не здатні сприймати дійсність без якогось певного протистояння сил "зла і добра", на відміну від тієї утопії, що було зображено Олдосом Гакслі.


А Гакслі нічого не протиставляв? Людині загалом властиво розділяти на чорне і біле, це не проблема сьогодення, це проблема усього періоду існування людства.

anjey80 
Новенький


З нами з: 03.06.14
Востаннє: 20.09.20
Повідомлень: 10

2020-09-11 23:11  
Дуже якісна екранізація твору Олдоса Гакслі, варто дивитися і заради авторської ідеї, і заради її сучасної інтерпретації
Temlees 
Поважний учасник


З нами з: 22.05.15
Востаннє: 20.09.20
Повідомлень: 157

2020-09-12 14:50  
vavlap написано:
А Гакслі нічого не протиставляв?

Так, ви праві, він протиставляв. Але так би мовити "терористична організація", яка напевно левову частку сценарію перебере на себе, змінить усю суть твору. Тому що телеглядачам це зрозуміліше, цікавіше. Якщо роман був по суті в жанрі драма, то серіал просто трилер, можливо бойовичок. Далі першої серії дивитися не збираюсь.

Ваш часовий пояс: GMT + 2 Години

Нова тема   Відповісти