Голгофа / Calvary (2014) 1080p Ukr/Eng | Sub Ukr/Eng

Нові коментарі

Нова тема   Відповісти
Автор Повідомлення
Alukret 
Свій


З нами з: 11.06.14
Востаннє: 21.09.20
Повідомлень: 70

2020-09-03 13:06  
Голгофа / Calvary (2014) 1080p Ukr/Eng | Sub Ukr/Eng

Голгофа / Calvary (2014) 1080p Ukr/Eng | Sub Ukr/Eng



Жанр: драма
Країна: Ірландія, Великобританія
Кінокомпанія: Lipsync Productions, Octagon Films, Reprisal Films, Irish Film Board
Режисер: Джон Майкл Мак-Донаг (John Michael McDonagh)
Актори: Брендан Ґлісон (Brendan Gleeson), Кріс О’Дауд (Chris O'Dowd), Келлі Райллі (Kelly Reilly), Ейден Ґіллен (Aidan Gillen), Ділан Моран (Dylan Moran), Ісаак де Банколе (Isaach De Bankolé), М. Еммет Волш (M. Emmet Walsh), Марі-Жозе Кроз (Marie-Josée Croze), Доналл Ґлісон (Domhnall Gleeson), Девід Вілмот (David Wilmot), Пет Шортт (Pat Shortt), Ґері Лайдон (Gary Lydon), Кілліан Скотт (Killian Scott), Орла О’Рурк (Orla O'Rourke), Овен Шарп (Owen Sharpe)

Сюжет:
На початку фільму невидимий хтось на сповіді повідомляє отцю Джеймсу, що має намір убити його рівно за тиждень. День за днем ми спостерігаємо за тим, як панотець Джеймс виконує свої буденні обов'язки священика, намагаючись урятувати грішні душі зі своєї пастви, де багато-хто, якщо не кожен, може виявитися майбутнім убивцею.


Тривалість: 01:41:30
Якість:
Відео:
кодек:
розмір кадру: 1920 х 816
бітрейт: 6845 кб/с

Аудіо # 1:
мова: українська
переклад: багатоголосий закадровий
кодек: AC-3 2.0
бітрейт: 192 кб/с

Аудіо # 2:
мова: англійська
переклад: оригінал
кодек: AC-3 5.1
бітрейт: 448 кб/с

Субтитри # 1:
мова: українська
переклад: авторський (химерка)
тип: програмні (м'які)
формат: *.srt

Субтитри # 2:
мова: англійська
тип: програмні (м'які)
формат: *.srt
Info
Код:
General
Unique ID                                : 75628363111206261757632239129531511058 (0x38E57E2FBFA665C03DF9611E52A7F112)
Complete name                            : Calvary (2014) 1080p [UKR_ENG] [Hurtom].
Format                                   :
Format version                           : Version 4
File size                                : 5.31 GiB
Duration                                 : 1 h 41 min
Overall bit rate                         : 7 483 kb/s
Movie name                               : Calvary (2014) 1080p [UKR_ENG] [Hurtom]
Encoded date                             : UTC 2020-09-03 09:44:24
Writing application                      : v44.0.0 ('Domino') 64-bit
Writing library                          : libebml v1.3.10 + v1.5.2

Video
ID                                       : 1
Format                                   : AVC
Format/Info                              : Advanced Video Codec
Format profile                           : [email protected]
Format settings                          : CABAC / 5 Ref Frames
Format settings, CABAC                   : Yes
Format settings, Reference frames        : 5 frames
Codec ID                                 : V_MPEG4/ISO/AVC
Duration                                 : 1 h 41 min
Bit rate                                 : 6 845 kb/s
Width                                    : 1 920 pixels
Height                                   : 816 pixels
Display aspect ratio                     : 2.35:1
Frame rate mode                          : Constant
Frame rate                               : 24.000 FPS
Color space                              : YUV
Chroma subsampling                       : 4:2:0
Bit depth                                : 8 bits
Scan type                                : Progressive
Bits/(Pixel*Frame)                       : 0.182
Stream size                              : 4.85 GiB (91%)
Title                                    : AVC / / 1080p / 6845 kbps
Writing library                          : core 138 r2358 9e941d1
Encoding settings                        : cabac=1 / ref=5 / deblock=1:-3:-3 / analyse=0x3:0x133 / me=umh / subme=11 / psy=1 / psy_rd=1.00:0.15 / mixed_ref=1 / me_range=32 / chroma_me=1 / trellis=2 / 8x8dct=1 / cqm=0 / deadzone=21,11 / fast_pskip=0 / chroma_qp_offset=-3 / threads=6 / lookahead_threads=1 / sliced_threads=0 / nr=0 / decimate=1 / interlaced=0 / bluray_compat=0 / constrained_intra=0 / bframes=8 / b_pyramid=2 / b_adapt=2 / b_bias=0 / direct=3 / weightb=1 / open_gop=0 / weightp=2 / keyint=240 / keyint_min=23 / scenecut=40 / intra_refresh=0 / rc=2pass / mbtree=0 / bitrate=6845 / ratetol=1.0 / qcomp=0.60 / qpmin=0 / qpmax=69 / qpstep=4 / cplxblur=20.0 / qblur=0.5 / ip_ratio=1.40 / pb_ratio=1.30 / aq=2:0.90
Language                                 : English
Default                                  : Yes
Forced                                   : No

Audio #1
ID                                       : 2
Format                                   : AC-3
Format/Info                              : Audio Coding 3
Commercial name                          : Dolby Digital
Codec ID                                 : A_AC3
Duration                                 : 1 h 41 min
Bit rate mode                            : Constant
Bit rate                                 : 192 kb/s
Channel(s)                               : 2 channels
Channel layout                           : L R
Sampling rate                            : 48.0 kHz
Frame rate                               : 31.250 FPS (1536 SPF)
Bit depth                                : 16 bits
Compression mode                         : Lossy
Stream size                              : 139 MiB (3%)
Title                                    : AC-3 / 2.0 / 192 kbps / НЛО TV
Language                                 : Ukrainian
Service kind                             : Complete Main
Default                                  : Yes
Forced                                   : Yes

Audio #2
ID                                       : 3
Format                                   : AC-3
Format/Info                              : Audio Coding 3
Commercial name                          : Dolby Digital
Codec ID                                 : A_AC3
Duration                                 : 1 h 41 min
Bit rate mode                            : Constant
Bit rate                                 : 448 kb/s
Channel(s)                               : 6 channels
Channel layout                           : L R C LFE Ls Rs
Sampling rate                            : 48.0 kHz
Frame rate                               : 31.250 FPS (1536 SPF)
Bit depth                                : 16 bits
Compression mode                         : Lossy
Stream size                              : 325 MiB (6%)
Title                                    : AC-3 / 5.1 / 448 kbps
Language                                 : English
Service kind                             : Complete Main
Default                                  : No
Forced                                   : No

Text #1
ID                                       : 4
Format                                   : UTF-8
Codec ID                                 : S_TEXT/UTF8
Codec ID/Info                            : UTF-8 Plain Text
Duration                                 : 1 h 36 min
Bit rate                                 : 101 b/s
Count of elements                        : 1180
Stream size                              : 71.8 KiB (0%)
Title                                    : Full / Hurtom (химерка)
Language                                 : Ukrainian
Default                                  : No
Forced                                   : No

Text #2
ID                                       : 5
Format                                   : UTF-8
Codec ID                                 : S_TEXT/UTF8
Codec ID/Info                            : UTF-8 Plain Text
Duration                                 : 1 h 32 min
Bit rate                                 : 65 b/s
Count of elements                        : 1170
Stream size                              : 44.4 KiB (0%)
Title                                    : Full
Language                                 : English
Default                                  : No
Forced                                   : No

Menu
00:00:00.000                             : en:Chapter 1
00:09:51.125                             : en:Chapter 2
00:19:20.166                             : en:Chapter 3
00:28:08.208                             : en:Chapter 4
00:38:09.625                             : en:Chapter 5
00:47:33.041                             : en:Chapter 6
00:58:09.500                             : en:Chapter 7
01:04:43.291                             : en:Chapter 8
01:10:57.000                             : en:Chapter 9
01:19:39.166                             : en:Chapter 10
01:24:27.333                             : en:Chapter 11
01:29:28.500                             : en:Chapter 12
01:36:53.166                             : en:Chapter 13

Скріншоти


Джерело: Rutor.org &
Особиста оцінка: 10 - без зайвих вагань рекомендую всім!


 Трекер:    Зареєстрований   

Завантажити / скачати фільм українською



відео для новачків



 Зареєстрований:   2020-09-03 13:06
 Розмір:   5.31 GB 
 Оцінка фільму:   7.8/10 (Голосів: 5)
   
Інші релізи
   Голгофа / Calvary (2014) 720p Ukr/Eng | Sub Ukr/Eng 11FrYkT  8 / 0   3.54 GB   2015-11-12 18:15 
   Голгофа / Calvary (2014) patriot2305  10 / 0   1.45 GB   2015-11-12 18:14 
   Голгофа / Calvary (2014) Eng | sub Ukr химерка  1 / 0   1.46 GB   2014-08-19 04:12 
Ваш часовий пояс: GMT + 2 Години

Нова тема   Відповісти