Спецпризначенці / S.W.A.T. (Сезон 1) (2017) 1080p Ukr/Eng | sub Eng

Нові коментарі

Нова тема   Відповісти
Автор Повідомлення
sergiyko.5 
Забанено
Забанено


З нами з: 25.02.16
Востаннє: 29.10.20
Повідомлень: 3650

2020-09-02 15:42  
Спецпризначенці / S.W.A.T. (Сезон 1) (2017) 1080p Ukr/Eng | sub Eng


Спецпризначенці / S.W.A.T. (Сезон 1) (2017) 1080p Ukr/Eng | sub Eng

Жанр: бойовик, триллер, кримінал
Країна: США
Кінокомпанія: MiddKid Productions, Kansas Art Productions, Original Film
Режисер: Білл Джирхарт, Джон Шоуолтер, Грег Біман
Актори: Кенні Джонсон, Стефані Сігман, Шемар Мур, Девід Лим, Патрік Ст. Еспріт, Аарон Бледсо, Ліна Еско, Луіс Ферріньо мол., Джей Херрінгтон, Джим Герріті та інші

Сюжет:
«Спецпризначенці» – це американський телесеріал, в центрі подій якого загін спеціального призначення. Даніель Гаррельсон (Шемар Мур) очолює загін справжніх профі, які займаються вельми відповідальною справою. Вони рятують жителів свого міста від найнебезпечніших злочинців. Загін спеціального призначення кожен день виїжджає на особливі завдання, небезпечні для життя. Однак з такою роботою можуть впоратися тільки вони.




Тривалість: 00:45:00 серія (загалом 22 серій з 22)
Якість:

Відео: кодек: розмір кадру: 1920 х 1080 бітрейт: 10800 кб/с
Аудіо # 1: мова: українська озвучення: багатоголосе закадрове кодек: 2.0 бітрейт: 192 кб/с
Озвучення: ТК Україна на замовлення NLO-TV
Аудіо # 2: мова: англійська озвучення: оригінал кодек: + 5.1 бітрейт: 640 кб/с
Субтитри: мова: англійська тип: програмні (м'які) формат: *.srt
Перелік серій:
01 The Killing Ground
02 Cuchillo
03 Pamilya
04 Radical
05 Imposters
06 Octane
07 Homecoming
08 Miracle
09 Blindspots
10 Seizure
11 K-Town
12 Contamination
13 Fences
14 Ghosts
15 Crews
16 Payback
17 Armory
18 Patrol
19 Source
20 Vendetta
21 Hunted
22 Hoax
Про файл:
General
Unique ID : 286389979746007866691196298925085812005 (0xD774B42AB2D7F9F0E2368FFD36B3E525)
Complete name : D:\Documents\Torrents\FILMS\S.W.A.T. S01 1080p \S.W.A.T.S01E01.The.Killing.Ground.1080p..
Format :
Format version : Version 4
File size : 3.63 GiB
Duration : 44 min 46 s
Overall bit rate mode : Variable
Overall bit rate : 11.6 Mb/s
Movie name : S.W.A.T. 2017 S01 by sergiyko
Encoded date : UTC 2020-09-02 13:32:45
Writing application : v49.0.0 ('Sick Of Losing Soulmates') 64-bit
Writing library : libebml v1.4.0 + v1.6.1

Video
ID : 1
Format : AVC
Format/Info : Advanced Video Codec
Format profile : [email protected]
Format settings : CABAC / 4 Ref Frames
Format settings, CABAC : Yes
Format settings, Reference : 4 frames
Codec ID : V_MPEG4/ISO/AVC
Duration : 44 min 46 s
Bit rate mode : Variable
Bit rate : 10.8 Mb/s
Maximum bit rate : 15.0 Mb/s
Width : 1 920 pixels
Height : 1 080 pixels
Display aspect ratio : 16:9
Frame rate mode : Constant
Frame rate : 23.976 (24000/1001) FPS
Color space : YUV
Chroma subsampling : 4:2:0
Bit depth : 8 bits
Scan type : Progressive
Bits/(Pixel*Frame) : 0.217
Stream size : 3.37 GiB (93%)
Title : S01E01
Language : English
Default : Yes
Forced : No
Color range : Limited
Color primaries : BT.709
Transfer characteristics : BT.709
Matrix coefficients : BT.709

Audio #1
ID : 2
Format : AC-3
Format/Info : Audio Coding 3
Commercial name : Dolby Digital
Codec ID : A_AC3
Duration : 44 min 46 s
Bit rate mode : Constant
Bit rate : 192 kb/s
Channel(s) : 2 channels
Channel layout : L R
Sampling rate : 48.0 kHz
Frame rate : 31.250 FPS (1536 SPF)
Compression mode : Lossy
Stream size : 61.5 MiB (2%)
Title : DUB 2ch | NLO-TV
Language : Ukrainian
Service kind : Complete Main
Default : Yes
Forced : Yes

Audio #2
ID : 3
Format : E-AC-3
Format/Info : Enhanced AC-3
Commercial name : Dolby Digital Plus
Codec ID : A_EAC3
Duration : 44 min 46 s
Bit rate mode : Constant
Bit rate : 640 kb/s
Channel(s) : 6 channels
Channel layout : L R C LFE Ls Rs
Sampling rate : 48.0 kHz
Frame rate : 31.250 FPS (1536 SPF)
Compression mode : Lossy
Stream size : 205 MiB (6%)
Language : English
Service kind : Complete Main
Default : No
Forced : No

Text
ID : 4
Format : UTF-8
Codec ID : S_TEXT/UTF8
Codec ID/Info : UTF-8 Plain Text
Duration : 44 min 39 s
Bit rate : 75 b/s
Count of elements : 859
Stream size : 24.6 KiB (0%)
Language : English
Default : No
Forced : No
Скріншоти:


Запис/синхронізація: sergiyko


Бронзовий реліз (на рейтинг впливає 75% завантаженого)
 Трекер:    Зареєстрований   

Завантажити / скачати серіал українською



відео для новачків



 Зареєстрований:   2020-09-28 22:44
 Розмір:   62.63 GB 
 Оцінка серіалу:   9.2/10 (Голосів: 11)
   
Wrestling Ukraine 
Свій


З нами з: 10.09.17
Востаннє: 02.12.20
Повідомлень: 93

2020-09-02 17:35  
Чомусь ось так і думав що від тебе (sergiyko.5) буде.

Дякую що записуєш.

sergiyko.5 
Забанено
Забанено


З нами з: 25.02.16
Востаннє: 29.10.20
Повідомлень: 3650

2020-09-09 12:45  
Додав 3-7 серії.
sergiyko.5 
Забанено
Забанено


З нами з: 25.02.16
Востаннє: 29.10.20
Повідомлень: 3650

2020-09-19 13:20  
Додав 8-14 серії.
sergiyko.5 
Забанено
Забанено


З нами з: 25.02.16
Востаннє: 29.10.20
Повідомлень: 3650

2020-09-28 22:45  
Сезон повний. Приємного перегляду!
Ваш часовий пояс: GMT + 2 Години

Нова тема   Відповісти