Шестеро поза законом / 6 Underground (2019) 720p Ukr/Eng | Sub Eng

Нові коментарі

Нова тема   Відповісти
Автор Повідомлення
Цікава ідея 
VIP


З нами з: 26.12.11
Востаннє: 26.09.20
Повідомлень: 666

2020-08-31 19:35  
| AVC | 720p | 1080p

Шестеро поза законом / 6 Underground (2019) 720p Ukr/Eng | Sub Eng


Шестеро поза законом / 6 Underground (2019) 720p Ukr/Eng | Sub Eng


Якщо вам сподобався дубляж фільму,
то ви можете підтримати нас за посиланням
ТИЦЬ


Жанр: бойовик, трилер
Країна: США



Кінокомпанія / телеканал: Bay Films, Skydance Media, Netflix
Режисери: Майкл Бей
Актори: Раян Рейнольдс, Адріа Архона, Мелані Лоран, Бен Гарді, Дейв Франко, Себастьян Роше, Ситара Аттайе, Корі Гоукінс, Мануель Рульфо, Джеймс Мюррей

Сюжет:
Інсценувавши власну смерть, свідомий мільярдер починає нове життя - набирає загін найманців з різних країн, щоб боротися зі злом в цьому світі. Всі члени команди отримують замість імен цифри, і їх метою стає повалення диктатора і звільнення народу країни Тургістан.


Дубльовано ТО "Цікава Ідея" за підтримки fishMD


Тривалість: 02:08:52

Якість: 720p
Відео:
кодек:
розмір кадру: 1280 x 720
бітрейт: ~ 5 000 кб/с

Аудіо # 1:
мова: українська | "Цікава Ідея"
переклад: професійний дубльований
кодек: 2.0
бітрейт: 192 кб/с

Аудіо # 2:
мова: англійська
переклад: оригінал
кодек: E- 5.1
бітрейт: 640 кб/с

Субтитри # 1:
мова: англійська
тип: програмні (м'які)
формат: *.srt
Info
Код:
Format                      :
Format version              : Version 4
File size                   : 4.14 GiB
Duration                    : 2 h 8 min
Overall bit rate mode       : Variable
Overall bit rate            : 4 598 kb/s
Movie name                  : Шестеро поза законом / 6 Underground (2019) 720p [Ukr.Eng sub.Eng] [Цікава Ідея]
Encoded date                : UTC 2020-08-31 16:50:00
Writing application         : v6.8.0 ('Theme for Great Cities') 32bit built on Mar  2 2014 21:27:07
Writing library             : libebml v1.3.0 + v1.4.1
Cover                       : Yes
Attachments                 : cover.jpg

Video
ID                          : 1
Format                      : AVC
Format/Info                 : Advanced Video Codec
Format profile              : [email protected]
Format settings             : CABAC / 3 Ref Frames
Format settings, CABAC      : Yes
Format settings, Reference  : 3 frames
Codec ID                    : V_MPEG4/ISO/AVC
Duration                    : 2 h 8 min
Bit rate mode               : Variable
Bit rate                    : 3 830 kb/s
Maximum bit rate            : 5 745 kb/s
Width                       : 1 280 pixels
Height                      : 720 pixels
Display aspect ratio        : 16:9
Frame rate mode             : Constant
Frame rate                  : 23.976 (24000/1001) FPS
Color space                 : YUV
Chroma subsampling          : 4:2:0
Bit depth                   : 8 bits
Scan type                   : Progressive
Bits/(Pixel*Frame)          : 0.173
Stream size                 : 3.31 GiB (80%)
Writing library             : core 148 r2715 7e75228
Encoding settings           : cabac=1 / ref=3 / deblock=1:0:0 / analyse=0x1:0x111 / me=umh / subme=10 / psy=1 / psy_rd=1.00:0.00 / mixed_ref=1 / me_range=24 / chroma_me=1 / trellis=2 / 8x8dct=0 / cqm=0 / deadzone=21,11 / fast_pskip=1 / chroma_qp_offset=-2 / threads=6 / lookahead_threads=1 / sliced_threads=0 / nr=0 / decimate=1 / interlaced=0 / bluray_compat=0 / stitchable=1 / constrained_intra=0 / bframes=2 / b_pyramid=0 / b_adapt=2 / b_bias=0 / direct=3 / weightb=1 / open_gop=0 / weightp=2 / keyint=250 / keyint_min=23 / scenecut=0 / intra_refresh=0 / rc_lookahead=48 / rc=2pass / mbtree=1 / bitrate=3830 / ratetol=1.0 / qcomp=0.50 / qpmin=6 / qpmax=51 / qpstep=4 / cplxblur=20.0 / qblur=0.5 / vbv_maxrate=5745 / vbv_bufsize=7660 / nal_hrd=vbr / filler=0 / ip_ratio=1.40 / aq=1:1.00
Default                     : Yes
Forced                      : No

Audio #1
ID                          : 2
Format                      : AC-3
Format/Info                 : Audio Coding 3
Commercial name             : Dolby Digital
Codec ID                    : A_AC3
Duration                    : 2 h 8 min
Bit rate mode               : Constant
Bit rate                    : 192 kb/s
Channel(s)                  : 2 channels
Channel layout              : L R
Sampling rate               : 48.0 kHz
Frame rate                  : 31.250 FPS (1536 SPF)
Bit depth                   : 16 bits
Compression mode            : Lossy
Stream size                 : 177 MiB (4%)
Title                       : Цікава Ідея
Language                    : Ukrainian
Service kind                : Complete Main
Default                     : Yes
Forced                      : No

Audio #2
ID                          : 3
Format                      : AC-3
Format/Info                 : Audio Coding 3
Commercial name             : Dolby Digital
Codec ID                    : A_AC3
Duration                    : 2 h 8 min
Bit rate mode               : Constant
Bit rate                    : 640 kb/s
Channel(s)                  : 6 channels
Channel layout              : L R C LFE Ls Rs
Sampling rate               : 48.0 kHz
Frame rate                  : 31.250 FPS (1536 SPF)
Bit depth                   : 16 bits
Compression mode            : Lossy
Stream size                 : 590 MiB (14%)
Title                       : Original
Language                    : English
Service kind                : Complete Main
Default                     : No
Forced                      : No

Text
ID                          : 4
Format                      : UTF-8
Codec ID                    : S_TEXT/UTF8
Codec ID/Info               : UTF-8 Plain Text
Title                       : English
Language                    : English
Default                     : No
Forced                      : No
Скріншоти



Дубльовано творчим об'єднанням:
Переклад: Федір Сидорук.


Авторський реліз (завантажувати можна без реєстрації)
 Трекер:    Зареєстрований   

Завантажити / скачати фільм українською



відео для новачків



 Зареєстрований:   2020-08-31 22:17
 Розмір:   4.14 GB 
 Оцінка фільму:   8.1/10 (Голосів: 24)
   
ukraine2015 
Новенький


З нами з: 18.08.14
Востаннє: 23.09.20
Повідомлень: 24

2020-09-04 19:30  
Як кіно, ще не скажу, але на самому початку - серйозні кіноляпи - на 5.48 грузовик відриває дзеркало у автівці героїв, а на 5.56 машина вже знову новенька )))
....
Що я скажу, мене вже ця машина бісить. Щойно вона вже напіврозвалюха, як на 14.20 вона таємничо перетворюється на новеньку автівку із салону, з тим щоб через кілька секунд знов піддатись метаморфозі. Бюджет фільму, так розумію, був вкрай обмежений.

KeryaS 
VIP


З нами з: 01.09.14
Востаннє: 25.09.20
Повідомлень: 303

2020-09-05 11:31  
ukraine2015
Бюджет 150 млн $)

ukraine2015 
Новенький


З нами з: 18.08.14
Востаннє: 23.09.20
Повідомлень: 24

2020-09-05 16:58  
Таж отож бо й воно, мій пост повний сарказму - при 150 млн$ випускати отакі очевидні ляпи??? Абсурд.
KeryaS 
VIP


З нами з: 01.09.14
Востаннє: 25.09.20
Повідомлень: 303

2020-09-05 17:05  
ukraine2015
Майкл Бей ніколи не заморочувався з такими дрібницями, а завжди робив ставку на видовищність. Хоча тут йому це вдалося так собі)

waldi-hurtom 
VIP


З нами з: 07.10.12
Востаннє: 26.09.20
Повідомлень: 1177

2020-09-13 23:38  
Відомо, що за гроші мізків не купиш. Хотів поставити 0, але сайт не дозволяє. 1 з 10. Єдине, що можна дивитися, до титрів на початку політ літачка над водою та горами. Решта - від безголових для безголових. Інтелект десь 3-річної дитини, не вище. Промотав. Амінь!
Ваш часовий пояс: GMT + 2 Години

Нова тема   Відповісти