Збірка промінців надії (Мій хлопець - псих) / Silver Linings Playbook (2012) 720p 3xUkr/Eng | Sub Ukr/Eng

Нові коментарі

Нова тема   Відповісти
Автор Повідомлення
Anonymous 







2020-08-31 16:09  
Збірка промінців надії (Мій хлопець - псих) / Silver Linings Playbook (2012) 720p 3xUkr/Eng | Sub Ukr/Eng

Збірка промінців надії (Мій хлопець - псих) / Silver Linings Playbook (2012) 720p 3xUkr/Eng | Sub Ukr/Eng


Жанр: комедія, драма, романтичний
Країна: США



Кінокомпанія: The Weinstein Company
Режисер: Девід О. Расселл / David O. Russell
Актори: Бредлі Купер / Bradley Cooper, Дженніфер Лоуренс / Jennifer Lawrence, Роберт Де Ніро / Robert De Niro, Джекі Вівер / Jacki Weaver, Кріс Такер / Chris Tucker, Анупам Кхер / Anupam Kher, Джон Ортіз / John Ortiz, Шиа Віґгем / Shea Whigham, Джулія Стайлз / Julia Stiles, Пол Герман / Paul Herman

Сюжет:
Часом доля нас випробовує. Іноді її удари бувають дошкульними і болючими, а бувають і такими, що вас можуть покласти в психіатричну лікарню. Саме такого удару отримав Пет Солатано. Тепер для нього головне знову стати на ноги і повернути свою дружину. Хай навіть він і досі одужав не до кінця та хай навіть дружина має проти нього судову заборону. За старання він заслуговує хоч промінчик надії і цей промінчик зватимуть Тіфані.


Тривалість: 02:02:05
Якість: 720p
Відео:
кодек:
розмір кадру: 1280x534
бітрейт: 6762 кб/с

Аудіо # 1:
мова: українська
переклад: багатоголосий закадровий | перекладено і озвучено на студії Омікрон на замовлення Hurtom.com
кодек: 5.1
бітрейт: 448 кб/с

Аудіо # 2:
мова: українська
переклад: багатоголосий закадровий
кодек: 2.0
бітрейт: 192 кб/с

Аудіо # 3:
мова: українська
переклад: багатоголосий закадровий
кодек: 2.0
бітрейт: 192 кб/с

Аудіо # 4:
мова: англійська
переклад: оригінал
кодек: 5.1
бітрейт: 448 кб/с

Субтитри:
мова: українська
тип: програмні (м'які)
формат: *.srt

Субтитри:
мова: англійська (SDH, кольорові)
тип: програмні (м'які)
формат: *.srt
Info
General
Unique ID : 221141904978023014014518540292510549791 (0xA65E61B57E00844D9C51A2D72C09871F)
Complete name : D:\Toloka\2020\Silver Linings Playbook (2012) 720p.
Format :
Format version : Version 4
File size : 7.00 GiB
Duration : 2 h 2 min
Overall bit rate : 8 205 kb/s
Movie name : Silver Linings Playbook (2012)
Encoded date : UTC 2020-08-31 12:54:11
Writing application : v6.1.0 ('Old Devil') built on Mar 4 2013 09:10:42
Writing library : libebml v1.3.0 + v1.4.0

Video
ID : 1
Format : AVC
Format/Info : Advanced Video Codec
Format profile : [email protected]
Format settings : CABAC / 12 Ref Frames
Format settings, CABAC : Yes
Format settings, Reference : 12 frames
Codec ID : V_MPEG4/ISO/AVC
Duration : 2 h 2 min
Bit rate : 6 762 kb/s
Width : 1 280 pixels
Height : 534 pixels
Display aspect ratio : 2.40:1
Frame rate mode : Constant
Frame rate : 23.976 (24000/1001) FPS
Color space : YUV
Chroma subsampling : 4:2:0
Bit depth : 8 bits
Scan type : Progressive
Bits/(Pixel*Frame) : 0.413
Stream size : 5.77 GiB (82%)
Writing library : core 130 r2273 b3065e6
Encoding settings : cabac=1 / ref=12 / deblock=1:-3:-3 / analyse=0x3:0x133 / me=umh / subme=11 / psy=1 / psy_rd=1.08:0.00 / mixed_ref=1 / me_range=32 / chroma_me=1 / trellis=2 / 8x8dct=1 / cqm=0 / deadzone=21,11 / fast_pskip=0 / chroma_qp_offset=-2 / threads=12 / lookahead_threads=2 / sliced_threads=0 / nr=0 / decimate=1 / interlaced=0 / bluray_compat=0 / constrained_intra=0 / bframes=9 / b_pyramid=2 / b_adapt=2 / b_bias=0 / direct=1 / weightb=1 / open_gop=0 / weightp=2 / keyint=240 / keyint_min=22 / scenecut=40 / intra_refresh=0 / rc_lookahead=60 / rc=crf / mbtree=0 / crf=17.0 / qcomp=0.80 / qpmin=0 / qpmax=69 / qpstep=4 / vbv_maxrate=50000 / vbv_bufsize=50000 / crf_max=0.0 / nal_hrd=none / ip_ratio=1.25 / pb_ratio=1.25 / aq=1:0.70
Language : English
Default : Yes
Forced : No
Color range : Limited
Color primaries : BT.709
Transfer characteristics : BT.709
Matrix coefficients : BT.709

Audio #1
ID : 2
Format : AC-3
Format/Info : Audio Coding 3
Commercial name : Dolby Digital
Codec ID : A_AC3
Duration : 2 h 2 min
Bit rate mode : Constant
Bit rate : 448 kb/s
Channel(s) : 6 channels
Channel layout : L R C LFE Ls Rs
Sampling rate : 48.0 kHz
Frame rate : 31.250 FPS (1536 SPF)
Compression mode : Lossy
Stream size : 391 MiB (5%)
Title : UKR (Омікрон)
Language : Ukrainian
Service kind : Complete Main
Default : Yes
Forced : Yes

Audio #2
ID : 3
Format : AC-3
Format/Info : Audio Coding 3
Commercial name : Dolby Digital
Codec ID : A_AC3
Duration : 2 h 2 min
Bit rate mode : Constant
Bit rate : 192 kb/s
Channel(s) : 2 channels
Channel layout : L R
Sampling rate : 48.0 kHz
Frame rate : 31.250 FPS (1536 SPF)
Compression mode : Lossy
Stream size : 168 MiB (2%)
Title : UKR (1+1)
Language : Ukrainian
Service kind : Complete Main
Default : No
Forced : No

Audio #3
ID : 4
Format : AC-3
Format/Info : Audio Coding 3
Commercial name : Dolby Digital
Codec ID : A_AC3
Duration : 2 h 2 min
Bit rate mode : Constant
Bit rate : 192 kb/s
Channel(s) : 2 channels
Channel layout : L R
Sampling rate : 48.0 kHz
Frame rate : 31.250 FPS (1536 SPF)
Compression mode : Lossy
Stream size : 168 MiB (2%)
Title : UKR (Inter)
Language : Ukrainian
Service kind : Complete Main
Default : No
Forced : No

Audio #4
ID : 5
Format : AC-3
Format/Info : Audio Coding 3
Commercial name : Dolby Digital
Codec ID : A_AC3
Duration : 2 h 2 min
Bit rate mode : Constant
Bit rate : 448 kb/s
Channel(s) : 6 channels
Channel layout : L R C LFE Ls Rs
Sampling rate : 48.0 kHz
Frame rate : 31.250 FPS (1536 SPF)
Compression mode : Lossy
Stream size : 391 MiB (5%)
Title : ENG
Language : English
Service kind : Complete Main
Default : No
Forced : No

Text #1
ID : 6
Format : UTF-8
Codec ID : S_TEXT/UTF8
Codec ID/Info : UTF-8 Plain Text
Title : UKR
Language : Ukrainian
Default : Yes
Forced : No

Text #2
ID : 7
Format : UTF-8
Codec ID : S_TEXT/UTF8
Codec ID/Info : UTF-8 Plain Text
Title : ENG SDH
Language : English
Default : No
Forced : No

Text #3
ID : 8
Format : UTF-8
Codec ID : S_TEXT/UTF8
Codec ID/Info : UTF-8 Plain Text
Title : ENG Color
Language : English
Default : No
Forced : No

Menu
00:00:00.000 : en:00:00:00.000
00:10:18.534 : en:00:10:18.534
00:21:11.979 : en:00:21:11.979
00:29:25.847 : en:00:29:25.847
00:35:20.868 : en:00:35:20.868
00:52:22.013 : en:00:52:22.013
01:03:47.281 : en:01:03:47.281
01:13:18.727 : en:01:13:18.727
01:21:50.405 : en:01:21:50.405
01:36:58.103 : en:01:36:58.103
01:43:52.434 : en:01:43:52.434
01:56:08.795 : en:01:56:08.795
Скріншоти









За звукові доріжки подяка п.: OlegCena, xslim, Bohdan237 а також студії Омікрон
За постер подяка п. Gelios
Особиста подяка пану denixx за надану матеріальну допомогу на підтримку цього і майбутніх релізів.
Джерело:


Золотий реліз (завантажене не впливає на рейтинг)
 Трекер:    Зареєстрований   

Завантажити / скачати фільм українською



відео для новачків



 Зареєстрований:   2020-08-31 16:09
 Розмір:   7 GB 
 Оцінка фільму:   9.5/10 (Голосів: 4)
   
VitNi 
Поважний учасник


З нами з: 05.05.12
Востаннє: 22.09.20
Повідомлень: 181

2020-09-09 21:57  
чудовий фільм з чудовим гумором... Happy
Ваш часовий пояс: GMT + 2 Години

Нова тема   Відповісти