Вікі - маленький вікінг / Wickie und die starken Männer (2009) 1080p Ukr/Ger | sub Ger

Нові коментарі

Нова тема   Відповісти
Автор Повідомлення
Anonymous 







2020-08-31 01:51  
Вікі - маленький вікінг / Wickie und die starken Männer (2009) 1080p Ukr/Ger | sub Ger

Вікі - маленький вікінг / Wickie und die starken Männer (2009) 1080p Ukr/Ger | sub Ger
Blu-ray



Жанр: екшн, пригодницький, комедія
Країна: Німеччина



Кінокомпанія: Rat Pack Filmproduktion, Constantin Film, herbX Film
Режисер: Міхаель Хербіг
Актори: Йонас Гаммерлі, Вальдемар Кобус, Ніколас Ромм, Крістіан Кох, Олаф Короткий, Майк Маас

Сюжет:
Маленький Вікі живе з батьками в селі вікінгів. На відміну від інших вікінгів, які, природно, сильні і безстрашні, Вікі боязкий і не такий вже й сильний. Він, також на відміну від інших вікінгів, неймовірно розумний і завжди допомагає батькові та іншим вікінгам виходити з практично безнадійних ситуацій.


Тривалість: 01:27:36
Якість:
Відео:
кодек:
розмір кадру: 1920 х 816
бітрейт: 7372 кб/с

Аудіо # 1:
мова: українська
переклад: багатоголосий закадровий
кодек: 2.0
бітрейт: 192 кб/с

Аудіо # 2:
мова: німецька
переклад: оригінал
кодек: 5.1
бітрейт: 1509 кб/с

Джерело озвучення:

За запис звуку з ТБ дякуємо пану xslim (Palamar)

Субтитри:
мова: німецька
тип: програмні (м'які)
формат: *.srt
Info
Код:
General
Unique ID                                : 21376410377638623046286218369892546181 (0x1014F2670DD8038BF80DF0FB8AFAF685)
Complete name                            : Wickie und die starken Männer (2009) 1080p [Ukr_Ger] [Hurtom].
Format                                   :
Format version                           : Version 4
File size                                : 5.55 GiB
Duration                                 : 1 h 27 min
Overall bit rate                         : 9 077 kb/s
Movie name                               : Вікі - маленький вікінг (2009)
Encoded date                             : UTC 2020-08-30 00:48:01
Writing application                      : v49.0.0 ('Sick Of Losing Soulmates') 64-bit
Writing library                          : libebml v1.4.0 + v1.6.1
Cover                                    : Yes
Attachments                              : cover.jpg

Video
ID                                       : 1
Format                                   : AVC
Format/Info                              : Advanced Video Codec
Format profile                           : [email protected]
Format settings                          : CABAC / 5 Ref Frames
Format settings, CABAC                   : Yes
Format settings, Reference frames        : 5 frames
Codec ID                                 : V_MPEG4/ISO/AVC
Duration                                 : 1 h 27 min
Bit rate                                 : 7 372 kb/s
Width                                    : 1 920 pixels
Height                                   : 816 pixels
Display aspect ratio                     : 2.35:1
Frame rate mode                          : Constant
Frame rate                               : 24.000 FPS
Color space                              : YUV
Chroma subsampling                       : 4:2:0
Bit depth                                : 8 bits
Scan type                                : Progressive
Bits/(Pixel*Frame)                       : 0.196
Stream size                              : 4.51 GiB (81%)
Writing library                          : core 88 r1462 7fcffde
Encoding settings                        : cabac=1 / ref=5 / deblock=1:0:0 / analyse=0x3:0x133 / me=umh / subme=7 / psy=1 / psy_rd=1.00:0.00 / mixed_ref=1 / me_range=16 / chroma_me=1 / trellis=1 / 8x8dct=1 / cqm=0 / deadzone=21,11 / fast_pskip=0 / chroma_qp_offset=-2 / threads=6 / sliced_threads=0 / nr=0 / decimate=1 / mbaff=0 / constrained_intra=0 / bframes=3 / b_pyramid=2 / b_adapt=1 / b_bias=0 / direct=1 / wpredb=1 / wpredp=2 / keyint=250 / keyint_min=25 / scenecut=40 / intra_refresh=0 / rc_lookahead=40 / rc=crf / mbtree=1 / crf=20.0 / qcomp=0.60 / qpmin=10 / qpmax=51 / qpstep=4 / ip_ratio=1.40 / aq=1:1.00
Language                                 : German
Default                                  : Yes
Forced                                   : No

Audio #1
ID                                       : 2
Format                                   : AC-3
Format/Info                              : Audio Coding 3
Commercial name                          : Dolby Digital
Codec ID                                 : A_AC3
Duration                                 : 1 h 27 min
Bit rate mode                            : Constant
Bit rate                                 : 192 kb/s
Channel(s)                               : 2 channels
Channel layout                           : L R
Sampling rate                            : 48.0 kHz
Frame rate                               : 31.250 FPS (1536 SPF)
Compression mode                         : Lossy
Stream size                              : 120 MiB (2%)
Language                                 : Ukrainian
Service kind                             : Complete Main
Default                                  : Yes
Forced                                   : Yes

Audio #2
ID                                       : 3
Format                                   :
Format/Info                              : Digital Theater Systems
Codec ID                                 : A_DTS
Duration                                 : 1 h 27 min
Bit rate mode                            : Constant
Bit rate                                 : 1 509 kb/s
Channel(s)                               : 6 channels
Channel layout                           : C L R Ls Rs LFE
Sampling rate                            : 48.0 kHz
Frame rate                               : 93.750 FPS (512 SPF)
Bit depth                                : 16 bits
Compression mode                         : Lossy
Stream size                              : 946 MiB (17%)
Language                                 : German
Default                                  : No
Forced                                   : No

Text
ID                                       : 4
Format                                   : UTF-8
Codec ID                                 : S_TEXT/UTF8
Codec ID/Info                            : UTF-8 Plain Text
Duration                                 : 1 h 26 min
Bit rate                                 : 52 b/s
Count of elements                        : 700
Stream size                              : 33.6 KiB (0%)
Language                                 : German
Default                                  : No
Forced                                   : No

Скріншоти





Джерело:


 Трекер:    Зареєстрований   

Завантажити / скачати фільм українською



відео для новачків



 Зареєстрований:   2020-08-31 01:51
 Розмір:   5.55 GB 
 Оцінка фільму:   10/10 (Голосів: 2)
   
Ваш часовий пояс: GMT + 2 Години

Нова тема   Відповісти