Шовк (Сезон 2) / Silk (Season 2) (2012) 1080p Ukr/Eng

Нові коментарі

Нова тема   Відповісти
Автор Повідомлення
BaibaKoTV 
Свій


З нами з: 01.12.16
Востаннє: 02.12.20
Повідомлень: 70

2020-08-30 21:18  

1-й сезон: | AVC | 720р |
2-й сезон: | AVC | 1080p |
| Усі роздачі т/с |

Шовк (Сезон 2) / Silk (Season 2) (2012) 1080p Ukr/Eng

Шовк (Сезон 2) / Silk (Season 2) (2012) 1080p Ukr/Eng

Особлива подяка fuks за допомогу у підготовці релізу!


Жанр: драма
Країна: Велика Британія



Кінокомпанія: BBC Productions / BBC One
Режисер: Пітер Гор, Еліс Троутон, Джеремі Веб
Актори: Максін Пік, Руперт Пенрі-Джонс, Ніл Стьюк, Джон Макмілла, Тео Барклем-Біггз, Алекс Дженнінгс, Індіра Варма

Сюжет:
Марта Костелло стала королівським адвокатом, але з новим званням прийшло і розуміння того, що на вершині може бути дуже самотньо. Для Ши Лейн настали важкі часи: головний клерк Біллі докладає всіх зусилль, щоб контора залишалася на плаву, а Клайв Рідер намагається змиритися з упущеною можливістю вдягнутися в шовкову мантію. У вищому кримінальному суді, де тепер працює Марта, їй доводиться стикатися з кращими адвокатами і суддями, серед яких дуже складно розпізнати своїх друзів і ворогів. Але головне - там розглядаються справи, де закон часто суперечить здоровому глузду, і тільки справжній королівський адвокат може добитися справедливого рішення.


Тривалість: 1 серія: ~ 60 хв (цілком серій: 6)
Перелік серій
01. Famous Last Words
02. The House of Ill Repute
03. In the Family Way
04. Wooden Overcoat
05. Shooting Blanks (Part 1)
06. Shooting Blanks (Part 2)
Якість: 1080p
Відео:
кодек:
розмір кадру: 1920x1080
бітрейт: ~5000 кб/с

Аудіо # 1:
мова: українська
переклад: професійний багатоголосий закадровий | BaibaKoTV
кодек: 2.0
бітрейт: 157 кб/с

Аудіо # 2:
мова: англійська
переклад: оригінал
кодек: 2.0
бітрейт: 157 кб/с

Субтитри:
мова: українська (написи)
тип: програмні (м'які)
формат: *.
Info
General
Format :
Format version : Version 4 / Version 2
File size : 2.23 GiB
Duration : 58 min 18 s
Overall bit rate : 5 481 kb/s
Encoded date : UTC 2020-08-30 13:31:52
Writing application : v33.0.0 64-bit
Writing library : libebml v1.3.7 + v1.5.0

Video
ID : 1
Format : AVC
Format/Info : Advanced Video Codec
Format profile : [email protected]
Format settings : CABAC / 4 Ref Frames
Format settings, CABAC : Yes
Format settings, RefFrames : 4 frames
Codec ID : V_MPEG4/ISO/AVC
Duration : 58 min 18 s
Bit rate : 5 167 kb/s
Width : 1 920 pixels
Height : 1 080 pixels
Display aspect ratio : 16:9
Frame rate mode : Constant
Frame rate : 25.000 FPS
Color space : YUV
Chroma subsampling : 4:2:0
Bit depth : 8 bits
Scan type : Progressive
Bits/(Pixel*Frame) : 0.100
Stream size : 2.10 GiB (94%)
Language : English
Default : Yes
Forced : No
Color range : Limited
Color primaries : BT.709
Transfer characteristics : BT.709
Matrix coefficients : BT.709

Audio #1
ID : 2
Format :
Format/Info : Advanced Audio Codec
Format profile : LC
Codec ID : A_AAC-2
Duration : 58 min 18 s
Bit rate : 155 kb/s
Channel(s) : 2 channels
Channel positions : Front: L R
Sampling rate : 48.0 kHz
Frame rate : 46.875 FPS (1024 SPF)
Compression mode : Lossy
Stream size : 64.5 MiB (3%)
Language : Ukrainian
Default : Yes
Forced : No

Audio #2
ID : 3
Format :
Format/Info : Advanced Audio Codec
Format profile : LC
Codec ID : A_AAC-2
Duration : 58 min 18 s
Bit rate : 157 kb/s
Channel(s) : 2 channels
Channel positions : Front: L R
Sampling rate : 48.0 kHz
Frame rate : 46.875 FPS (1024 SPF)
Compression mode : Lossy
Stream size : 65.3 MiB (3%)
Language : English
Default : No
Forced : No

Text
ID : 4
Format :
Codec ID : S_TEXT/
Codec ID/Info : Advanced Sub Station Alpha
Duration : 56 min 32 s
Bit rate : 0 b/s
Count of elements : 3
Compression mode : Lossless
Stream size : 175 Bytes (0%)
Title : Forsed
Language : Ukrainian
Default : Yes
Forced : Yes
Скріншоти


Авторський реліз (завантажувати можна без реєстрації)
 Трекер:    Зареєстрований   

Завантажити / скачати серіал українською



відео для новачків



 Зареєстрований:   2020-08-30 21:18
 Розмір:   13.53 GB 
 Оцінка серіалу:   9.9/10 (Голосів: 7)
   
RemH7 
Частий відвідувач


З нами з: 15.08.11
Востаннє: 02.12.20
Повідомлень: 27

2020-09-30 09:09  
Дуже дякую, за переклад чудового серіалу.
Акторська гра, гумор та сюжет - все на висоті.

Чи плануєте переклад третього сезону?

BaibaKoTV 
Свій


З нами з: 01.12.16
Востаннє: 02.12.20
Повідомлень: 70

2020-10-08 22:42  
RemH7

Так, у планах третій сезон є і навіть потроху йде робота над перекладом.

Ваш часовий пояс: GMT + 2 Години

Нова тема   Відповісти