Формула 1. Сезон 2020. Етап 7. Гран-Прі Бельгії. Гонка (30.08.2020) 1080p 2xUkr/Eng

Нові коментарі

Нова тема   Відповісти
Автор Повідомлення
sergiyko.5 
Забанено
Забанено


З нами з: 25.02.16
Востаннє: 29.10.20
Повідомлень: 3651

2020-08-30 18:12  
Формула 1. Сезон 2020. Етап 7. Гран-Прі Бельгії. Гонка (30.08.2020) 1080p 2xUkr/Eng


Формула 1. Сезон 2020. Етап 7. Гран-Прі Бельгії. Гонка (30.08.2020) 1080p 2xUkr/Eng

Жанр: Перегони Формули 1
Країна: Бельгія
Телеканал: Sky Sports F1
Коментар: Максим Подзігун, Роман Гончаров, англійською

Опис:
Гонка сьомого етапу Гран-Прі Бельгії 2020 року.


Якість:

Відео: кодек: розмір кадру: 1920 х 1080 бітрейт: 5000 кб/с 25 кад/с
Аудіо 1: мова: українська кодек: 2.0 бітрейт: 192 кб/с
Аудіо 2: мова: українська кодек: 2.0 бітрейт: 192 кб/с
Аудіо 3: мова: англійська кодек: 2.0 бітрейт: 192 кб/с
Тривалість:
01:51:06
Про файл:
General
Unique ID : 245648185082330010834606325130012980447 (0xB8CE1E9A662D40DD8D08F03C68D8F4DF)
Complete name : D:\Documents\Torrents\SPORT\Formula 1\F1.2020.07.Belgium.Race.1080p..Ukr.Eng.
Format :
Format version : Version 4
File size : 4.33 GiB
Duration : 1 h 51 min
Overall bit rate mode : Variable
Overall bit rate : 5 583 kb/s
Encoded date : UTC 2020-08-30 16:07:05
Writing application : v49.0.0 ('Sick Of Losing Soulmates') 64-bit
Writing library : libebml v1.4.0 + v1.6.1

Video
ID : 1
Format : AVC
Format/Info : Advanced Video Codec
Format profile : [email protected]
Format settings : CABAC / 3 Ref Frames
Format settings, CABAC : Yes
Format settings, Reference : 3 frames
Codec ID : V_MPEG4/ISO/AVC
Duration : 1 h 51 min
Bit rate mode : Variable
Bit rate : 5 007 kb/s
Maximum bit rate : 5 500 kb/s
Width : 1 920 pixels
Height : 1 080 pixels
Display aspect ratio : 16:9
Frame rate mode : Constant
Frame rate : 25.000 FPS
Color space : YUV
Chroma subsampling : 4:2:0
Bit depth : 8 bits
Scan type : Progressive
Bits/(Pixel*Frame) : 0.097
Stream size : 3.89 GiB (90%)
Title : Sky Sports F1
Language : English
Default : Yes
Forced : No
Color range : Limited
Color primaries : BT.709
Transfer characteristics : BT.709
Matrix coefficients : BT.709

Audio #1
ID : 2
Format : AC-3
Format/Info : Audio Coding 3
Commercial name : Dolby Digital
Codec ID : A_AC3
Duration : 1 h 51 min
Bit rate mode : Constant
Bit rate : 192 kb/s
Channel(s) : 2 channels
Channel layout : L R
Sampling rate : 48.0 kHz
Frame rate : 31.250 FPS (1536 SPF)
Compression mode : Lossy
Delay relative to video : 16 ms
Stream size : 153 MiB (3%)
Title : Максим Подзігун
Language : Ukrainian
Service kind : Complete Main
Default : Yes
Forced : Yes

Audio #2
ID : 3
Format : AC-3
Format/Info : Audio Coding 3
Commercial name : Dolby Digital
Codec ID : A_AC3
Duration : 1 h 51 min
Bit rate mode : Constant
Bit rate : 192 kb/s
Channel(s) : 2 channels
Channel layout : L R
Sampling rate : 48.0 kHz
Frame rate : 31.250 FPS (1536 SPF)
Compression mode : Lossy
Delay relative to video : 16 ms
Stream size : 153 MiB (3%)
Title : Роман Гончаров
Language : Ukrainian
Service kind : Complete Main
Default : No
Forced : No

Audio #3
ID : 4
Format : LC
Format/Info : Advanced Audio Codec Low Complexity
Codec ID : A_AAC-2
Duration : 1 h 51 min
Bit rate : 192 kb/s
Channel(s) : 2 channels
Channel layout : L R
Sampling rate : 48.0 kHz
Frame rate : 46.875 FPS (1024 SPF)
Compression mode : Lossy
Delay relative to video : 14 ms
Stream size : 150 MiB (3%)
Title : Sky Sports F1
Language : English
Default : No
Forced : No
Скріншоти:


Запис/зведення: sergiyko



Срібний реліз (на рейтинг впливає 50% завантаженого)
 Трекер:    Зареєстрований   

Завантажити / скачати торрент



відео для новачків



 Зареєстрований:   2020-08-30 18:12
 Розмір:   4.33 GB 
 Оцінка:   9.8/10 (Голосів: 39)
   
stas_funnyman 
Новенький


З нами з: 06.01.14
Востаннє: 22.10.20
Повідомлень: 3

2020-08-30 18:44  
Оперативненько - дякуємо за відмінну швидкість!
antik_2008 
Релізер і модератор відео


З нами з: 20.10.08
Востаннє: 31.10.20
Повідомлень: 4235

2020-08-30 19:08  
sergiyko.5 Дякую за оперативну роботу!

Гарний реліз Happy

Ваш часовий пояс: GMT + 2 Години

Нова тема   Відповісти