Крихітка на мільйон доларів / Million Dollar Baby (2004) [GER Transfer] 1080p H.265 3xUkr/Eng | Sub Eng

Нові коментарі

Нова тема   Відповісти
Останній раз роздавалося _tarowski (2020-09-17)
Автор Повідомлення
Anonymous 







2020-08-30 14:11  
Крихітка на мільйон доларів / Million Dollar Baby (2004) [GER Transfer] 1080p H.265 3xUkr/Eng | Sub Eng

Крихітка на мільйон доларів / Million Dollar Baby (2004) [GER Transfer] 1080p H.265 3xUkr/Eng | Sub Eng


Жанр: драма, спорт
Країна: США
Кінокомпанія: Warner Bros., Lakeshore Entertainment, Malpaso Productions
Режисер: Клінт Іствуд [Clint Eastwood]
Актори: Клінт Іствуд [Clint Eastwood], Гіларі Свенк [Hilary Swank], Морґан Фрімен [Morgan Freeman], Джей Барушель [Jay Baruchel], Майк Колтер [Mike Colter], Люсія Ріжкер [Lucia Rijker], Браян Ф. О'Бірн [Brian F. O'Byrne], Ентоні Макі [Anthony Mackie], Марґо Мартіндейл [Margo Martindale], Майкл Пенья [Michael Peña]

Сюжет:
Тренер з боксу Френк Данн переживає не кращі часи. Через складні відносини зі своєю дочкою він довгий час не дозволяв собі прив'язуватися до кого-небудь, боячись знов відчути присмак втрати. Проте все змінюється, коли в його тренувальному залі з'являється Мегі. Існуючи в постійній боротьбі з навколишнім світом, Мегі виробила в собі непохитну стійкість духу і волю до перемоги. Але більше всього на світі вона хоче, щоб в неї повірили. Френк не хоче брати на себе відповідальність, проте завзятість Мегі перемагає. У водоверті життєвих перепетій ці двоє усвідомлюють, що прагнуть до одного і того ж: забути минуле і знайти сім'ю. Попереду їх чекає головний бій життя, для якого їм потрібно буде зібрати в своїх серцях стільки мужності, скільки раніше вони і уявити собі не могли...

Тривалість: 02:12:32
Якість: [GER Transfer]

Відео:
кодек: H.265 (HEVC)
розмір кадру: 1920 x 800
бітрейт: 5 187 кб/с
бітова глибина: 10 біт

Увага! Перед завантаженням переконайтесь, що ваш пристрій відтворення (та/або ПЗ) підтримує H.265 (HEVC)

Аудіо # 1:
мова: українська
переклад: професійний дубльований
кодек: AC-3 2.0
бітрейт: 192 кб/с

Аудіо # 2:
мова: українська
переклад: багатоголосий закадровий
кодек: AC-3 2.0
бітрейт: 192 кб/с

Аудіо # 3:
мова: українська
переклад: багатоголосий закадровий ,
кодек: AC-3 2.0
бітрейт: 192 кб/с

Аудіо # 4:
мова: англійська
переклад: оригінал
кодек: 5.1
бітрейт: 1510 кб/с

Субтитри # 1: (Full)
мова: англійська
тип: програмні (м'які)
формат: *.srt


Info
Код:
General
Unique ID                                : 129962148844012831840519981375226938315 (0x61C5CCA61ADA4AB1B69F1D1A9DB883CB)
Complete name                            : Million Dollar Baby (2004) [GER Transfer] 1080p H.265 [3xUKR_ENG] [Hurtom].
Format                                   :
Format version                           : Version 4
File size                                : 6.74 GiB
Duration                                 : 2 h 12 min
Overall bit rate                         : 7 276 kb/s
Movie name                               : Крихітка на мільйон доларів / Million Dollar Baby (2004) [GER Transfer]
Encoded date                             : UTC 2020-08-30 10:33:57
Writing application                      : v20.0.0 ('I Am The Sun') 64-bit
Writing library                          : libebml v1.3.5 + v1.4.8
Cover                                    : Yes
Attachments                              : Cover.jpg

Video
ID                                       : 1
Format                                   : HEVC
Format/Info                              : High Efficiency Video Coding
Format profile                           : Main [email protected]@High
Codec ID                                 : V_MPEGH/ISO/HEVC
Duration                                 : 2 h 12 min
Bit rate                                 : 5 187 kb/s
Width                                    : 1 920 pixels
Height                                   : 800 pixels
Display aspect ratio                     : 2.40:1
Frame rate mode                          : Constant
Frame rate                               : 23.976 (23976/1000) FPS
Original frame rate                      : 23.976 (24000/1001) FPS
Color space                              : YUV
Chroma subsampling                       : 4:2:0
Bit depth                                : 10 bits
Bits/(Pixel*Frame)                       : 0.141
Stream size                              : 4.80 GiB (71%)
Title                                    : Крихітка на мільйон доларів / Million Dollar Baby (2004) [GER Transfer]
Writing library                          : x265 3.4+4-g3ae3d7116:[Windows][GCC 10.2.0][64 bit] 10bit
Encoding settings                        : cpuid=1111039 / frame-threads=4 / numa-pools=16 / wpp / no-pmode / no-pme / no-psnr / no-ssim / log-level=2 / input-csp=1 / input-res=1920x800 / interlace=0 / total-frames=190666 / level-idc=41 / high-tier=1 / uhd-bd=0 / ref=5 / no-allow-non-conformance / no-repeat-headers / annexb / no-aud / no-hrd / info / hash=0 / no-temporal-layers / open-gop / min-keyint=23 / keyint=240 / gop-lookahead=0 / bframes=13 / b-adapt=2 / b-pyramid / bframe-bias=0 / rc-lookahead=60 / lookahead-slices=1 / scenecut=40 / hist-scenecut=0 / radl=0 / no-splice / no-intra-refresh / ctu=32 / min-cu-size=8 / rect / amp / max-tu-size=32 / tu-inter-depth=4 / tu-intra-depth=4 / limit-tu=1 / rdoq-level=1 / dynamic-rd=0.00 / no-ssim-rd / signhide / no-tskip / nr-intra=0 / nr-inter=0 / no-constrained-intra / no-strong-intra-smoothing / max-merge=5 / limit-refs=0 / no-limit-modes / me=3 / subme=7 / merange=57 / temporal-mvp / no-frame-dup / no-hme / weightp / weightb / no-analyze-src-pics / deblock=-2:-2 / no-sao / no-sao-non-deblock / rd=6 / selective-sao=0 / no-early-skip / no-rskip / no-fast-intra / no-tskip-fast / no-cu-lossless / b-intra / no-splitrd-skip / rdpenalty=0 / psy-rd=2.00 / psy-rdoq=1.00 / no-rd-refine / no-lossless / cbqpoffs=0 / crqpoffs=0 / rc=crf / crf=19.5 / qcomp=0.70 / qpstep=4 / stats-write=0 / stats-read=0 / vbv-maxrate=50000 / vbv-bufsize=50000 / vbv-init=0.9 / crf-max=0.0 / crf-min=0.0 / ipratio=1.40 / pbratio=1.30 / aq-mode=2 / aq-strength=1.00 / no-cutree / zone-count=0 / no-strict-cbr / qg-size=32 / no-rc-grain / qpmax=69 / qpmin=0 / no-const-vbv / sar=1 / overscan=0 / videoformat=5 / range=0 / colorprim=1 / transfer=1 / colormatrix=1 / chromaloc=0 / display-window=0 / cll=0,0 / min-luma=0 / max-luma=1023 / log2-max-poc-lsb=8 / vui-timing-info / vui-hrd-info / slices=1 / no-opt-qp-pps / no-opt-ref-list-length-pps / no-multi-pass-opt-rps / scenecut-bias=0.05 / hist-threshold=0.01 / no-opt-cu-delta-qp / no-aq-motion / no-hdr10 / no-hdr10-opt / no-dhdr10-opt / no-idr-recovery-sei / analysis-reuse-level=0 / analysis-save-reuse-level=0 / analysis-load-reuse-level=0 / scale-factor=0 / refine-intra=0 / refine-inter=0 / refine-mv=0 / refine-ctu-distortion=0 / no-limit-sao / ctu-info=0 / no-lowpass-dct / refine-analysis-type=0 / copy-pic=1 / max-ausize-factor=1.0 / no-dynamic-refine / no-single-sei / no-hevc-aq / no-svt / no-field / qp-adaptation-range=1.00 / no-scenecut-aware-qpconformance-window-offsets / right=0 / bottom=0 / decoder-max-rate=0
Language                                 : English
Default                                  : Yes
Forced                                   : No
Color range                              : Limited
Color primaries                          : BT.709
Transfer characteristics                 : BT.709
Matrix coefficients                      : BT.709

Audio #1
ID                                       : 2
Format                                   : AC-3
Format/Info                              : Audio Coding 3
Commercial name                          : Dolby Digital
Codec ID                                 : A_AC3
Duration                                 : 2 h 12 min
Bit rate mode                            : Constant
Bit rate                                 : 192 kb/s
Channel(s)                               : 2 channels
Channel layout                           : L R
Sampling rate                            : 48.0 kHz
Frame rate                               : 31.250 FPS (1536 SPF)
Compression mode                         : Lossy
Stream size                              : 182 MiB (3%)
Title                                    : / 2.0 Ch / 192 kbps / DUB / ТЕТ
Language                                 : Ukrainian
Service kind                             : Complete Main
Default                                  : Yes
Forced                                   : Yes

Audio #2
ID                                       : 3
Format                                   : AC-3
Format/Info                              : Audio Coding 3
Commercial name                          : Dolby Digital
Codec ID                                 : A_AC3
Duration                                 : 2 h 12 min
Bit rate mode                            : Constant
Bit rate                                 : 192 kb/s
Channel(s)                               : 2 channels
Channel layout                           : L R
Sampling rate                            : 48.0 kHz
Frame rate                               : 31.250 FPS (1536 SPF)
Compression mode                         : Lossy
Stream size                              : 182 MiB (3%)
Title                                    : / 2.0 Ch / 192 kbps / MVO / AMC
Language                                 : Ukrainian
Service kind                             : Complete Main
Default                                  : No
Forced                                   : No

Audio #3
ID                                       : 4
Format                                   : AC-3
Format/Info                              : Audio Coding 3
Commercial name                          : Dolby Digital
Codec ID                                 : A_AC3
Duration                                 : 2 h 12 min
Bit rate mode                            : Constant
Bit rate                                 : 192 kb/s
Channel(s)                               : 2 channels
Channel layout                           : L R
Sampling rate                            : 48.0 kHz
Frame rate                               : 31.250 FPS (1536 SPF)
Compression mode                         : Lossy
Stream size                              : 182 MiB (3%)
Title                                    : / 2.0 Ch / 192 kbps / MVO / K1, ICTV
Language                                 : Ukrainian
Service kind                             : Complete Main
Default                                  : No
Forced                                   : No

Audio #4
ID                                       : 5
Format                                   : ES
Format/Info                              : Digital Theater Systems
Commercial name                          : -ES Matrix
Codec ID                                 : A_DTS
Duration                                 : 2 h 12 min
Bit rate mode                            : Constant
Bit rate                                 : 1 509 kb/s
Channel(s)                               : 6 channels
Channel(s)_Original                      : 7 channels
ChannelLayout_Original                   : C L R Ls Rs Cs LFE
Sampling rate                            : 48.0 kHz
Frame rate                               : 93.750 FPS (512 SPF)
Bit depth                                : 24 bits
Compression mode                         : Lossy
Stream size                              : 1.40 GiB (21%)
Title                                    : / 5.1 Ch / 1509 kbps / Original
Language                                 : English
Default                                  : No
Forced                                   : No

Text
ID                                       : 6
Format                                   : UTF-8
Codec ID                                 : S_TEXT/UTF8
Codec ID/Info                            : UTF-8 Plain Text
Duration                                 : 2 h 6 min
Bit rate                                 : 50 b/s
Count of elements                        : 1041
Stream size                              : 47.1 KiB (0%)
Title                                    : Full
Language                                 : English
Default                                  : No
Forced                                   : No

Menu
00:00:00.000                             : en:01. The Best Cut Man / God Dialogues
00:06:38.398                             : en:02. Hit Pit Gym / Who's Your New Girl?
00:14:11.433                             : en:03. After-Hours Advice
00:17:39.057                             : en:04. Keep the Bag
00:23:02.547                             : en:05. Gotta Leave You / Say That in Gaelic
00:28:04.139                             : en:06. Backwards
00:31:49.991                             : en:07. Frankie's Terms
00:35:03.893                             : en:08. To Make a Fighter
00:42:16.617                             : en:09. My Fighter / Too Many Holes
00:48:40.208                             : en:10. Who's Boss? / Wounds
00:55:55.477                             : en:11. Good Offers
00:59:14.467                             : en:12. Scrap's 109Th Fight / Return to Sender
01:06:18.724                             : en:13. Mo Cuishle Triumphant
01:10:59.213                             : en:14. Fight Talk
01:12:41.314                             : en:15. Visiting the Family / The Best Lemon Pie
01:19:02.279                             : en:16. Decisions
01:21:17.914                             : en:17. Scrap in the Ring
01:24:51.086                             : en:18. Round One / Round Two / The Accident
01:33:03.786                             : en:19. Her Fault, His Fault / Caregivers
01:39:32.424                             : en:20. A Cabin in Innisfree
01:43:23.906                             : en:21. Family Business
01:48:13.695                             : en:22. Asking a Favor
01:54:03.753                             : en:23. You'll Be Lost
01:58:35.983                             : en:24. She Got Her Shot / What Mo Cuishle Means
02:05:48.082                             : en:25. Wishful Thinking
02:08:07.846                             : en:26. End Credits
Світлини




Джерело: &
Особиста оцінка: 0 - не дивився


 Трекер:    Зареєстрований   

Завантажити / скачати фільм українською



відео для новачків



 Зареєстрований:   2020-08-30 14:11
 Розмір:   6.74 GB 
 Оцінка фільму:   10/10 (Голосів: 4)
   
Ваш часовий пояс: GMT + 2 Години

Нова тема   Відповісти