Найкращі друзі. Дівчата на завданні / LEGO Friends: Girls On A Mission (Сезон 3) (2019) 1080p

Нові коментарі

Нова тема   Відповісти
Автор Повідомлення
sergiyko.5 
Попереджень: 1
Попереджень: 1 


З нами з: 25.02.16
Востаннє: 22.09.20
Повідомлень: 3454

2020-08-30 12:38  
Всі одноіменні релізи на трекері

Найкращі друзі. Дівчата на завданні / LEGO Friends: Girls On A Mission (Сезон 3) (2019) 1080p


Найкращі друзі. Дівчата на завданні / LEGO Friends: Girls On A Mission (Сезон 3) (2019) 1080p

Жанр: пригоди, сімейний
Країна: США
Кінокомпанія: Picture This Studio
Режисер: Педер Педерсен

Сюжет:
Напевно, кожна людина знає: друзі – одне з найважливішого, що є у житті людини. Тому ті, у кого не складається з тим, щоб завести собі надійних друзів, часто сумують.

Саме так було і з героїнею мультфільму «Найкращі друзі» – аж доки їй не вдалося знайти собі справжніх подружок! Цей мультфільм розкаже історію, героїні якої потрапляють у безліч пригод, і вчаться вирішувати важливі питання разом. Він сподобається усім юним глядачам, адже розкаже про те, що усі на світі проблеми можна вирішити, якщо мати надійне дружнє плече, на яке можна спертись. До того ж, цей мультфільм буде дуже веселим, і дітлахи зможуть дивитись його разом зі своїми приятелями.




Тривалість: 1 серія: 10:40 (цілком серій: 20 з 20)
Якість:

Відео: кодек: розмір кадру: 1920 х 1080 бітрейт: 7900 кб/с
Аудіо: мова: українська озвучення: професійний дубльований кодек: 2.0 бітрейт: 192 кб/с [ Stereo ]
Озвучення:
Перелік серій
01.Follow Your Passion
02.House Guest
03.Zobo And Zoe
04.Game On
05.Go For The Gold
06.Strike a Chord
07.Unstoppable Friendship
08.Emma, P.I.
09.Daddy's Girl
10.Miarella
11.Part of the Herd
12.Free Bird
13.The Feels
14.Artifact or Fiction
15.The Right Stuff
16.Gone with the Winds
17.Mt Heartmore
18.Welcome to the Jungle
19.Splash Bash
20.Making Memories
Про файл:
General
Unique ID : 178364508679990717351847859257967331393 (0x862FC13C6CF28B1252052FB2C0E74841)
Complete name : D:\Documents\Torrents\FILMS\LEGO Friends. Girls On A Mission S03 1080p \S03E01.Follow Your Passion.1080p..
Format :
Format version : Version 4
File size : 613 MiB
Duration : 10 min 37 s
Overall bit rate : 8 069 kb/s
Movie name : LEGO Friends. Girls On A Mission S03 by sergiyko
Encoded date : UTC 2020-08-27 20:07:45
Writing application : v49.0.0 ('Sick Of Losing Soulmates') 64-bit
Writing library : libebml v1.4.0 + v1.6.1

Video
ID : 1
Format : AVC
Format/Info : Advanced Video Codec
Format profile : [email protected]
Format settings : CABAC / 6 Ref Frames
Format settings, CABAC : Yes
Format settings, Reference : 6 frames
Codec ID : V_MPEG4/ISO/AVC
Duration : 10 min 36 s
Bit rate : 7 877 kb/s
Width : 1 920 pixels
Height : 1 080 pixels
Display aspect ratio : 16:9
Frame rate mode : Constant
Frame rate : 25.000 FPS
Color space : YUV
Chroma subsampling : 4:2:0
Bit depth : 8 bits
Scan type : Progressive
Bits/(Pixel*Frame) : 0.152
Stream size : 598 MiB (98%)
Title : S03E01.Follow Your Passion
Language : English
Default : Yes
Forced : No

Audio
ID : 2
Format : AC-3
Format/Info : Audio Coding 3
Commercial name : Dolby Digital
Codec ID : A_AC3
Duration : 10 min 36 s
Bit rate mode : Constant
Bit rate : 192 kb/s
Channel(s) : 2 channels
Channel layout : L R
Sampling rate : 48.0 kHz
Frame rate : 31.250 FPS (1536 SPF)
Compression mode : Lossy
Delay relative to video : -200 ms
Stream size : 14.6 MiB (2%)
Title : DUB | ПлюсПлюс
Language : Ukrainian
Service kind : Complete Main
Default : Yes
Forced : No
Скріншоти:


Запис: sergiyko


Бронзовий реліз (на рейтинг впливає 75% завантаженого)
 Трекер:    Зареєстрований   

Завантажити / скачати мультфільм українською



відео для новачків



 Зареєстрований:   2020-09-17 12:42
 Розмір:   11.95 GB 
 Оцінка мультсеріалу:   10/10 (Голосів: 4)
   
sergiyko.5 
Попереджень: 1
Попереджень: 1 


З нами з: 25.02.16
Востаннє: 22.09.20
Повідомлень: 3454

2020-09-17 12:45  
Додав 7-20 серії. Сезон повний. Приємного перегляду!
Ваш часовий пояс: GMT + 2 Години

Нова тема   Відповісти