Спартанець (Спартан) / Spartan (2004) 720p 2xUkr/Eng | Sub Eng

Нові коментарі

Нова тема   Відповісти
Автор Повідомлення
Anonymous 







2020-08-29 21:15  
Спартанець (Спартан) / Spartan (2004) 720p 2xUkr/Eng | Sub Eng

Спартанець (Спартан) / Spartan (2004) 720p 2xUkr/Eng | Sub Eng


Жанр: екшн, трилер, драма, кримінал, детектив
Країна: США, Німеччина



Кінокомпанія: Tri Pictures, Warner Bros
Режисер: Девід Мемет / David Mamet
Актори: Вел Кілмер / Val Kilmer, Дерек Люк / Derek Luke, Вільям Х. Мейсі / William H. Macy, Тіа Тексада / Tia Texada, Джеремі Кембел / Jeremie Campbell, Боб Дженінгс / Bob Jennings, Лайонел Марк Сміт / Lionel Mark Smith, Джонні Меснер / Johnny Messner, Кріс ЛаЦентра / Chris LaCentra, Ренато Мано / Renato Magno та ін.

Сюжет:
Закони давньої Спарти були суворі: виживав найсильніший! Спеціальний агент секретної урядової служби Скот тому ж самому учив рекрутів, які хотіли стати бійцями спецназу, - виживає найсильніший! Виживає той, хто не роздумує, коли треба натиснути на спусковий гачок, і той, хто виконує наказ, не обговорюючи його. Скот - кращий кандидат для виконання найнебезпечнішого завдання: йому необхідно знайти зниклу дівчину Лору Ньютон раніше, ніж її викрадачі зрозуміють, що у них в руках - не просто студентка Гарвардського університету, а дочка знаного американського політика...


Тривалість: 01:46:29
Якість: 720p
Відео:
кодек:
розмір кадру: 1280x546
бітрейт: 3291 кб/с

Аудіо # 1:
мова: українська
переклад: багатоголосий закадровий ,
кодек: 2.0
бітрейт: 192 кб/с

Аудіо # 2:
мова: українська
переклад: багатоголосий закадровий
кодек: 2.0
бітрейт: 192 кб/с

Аудіо # 3:
мова: англійська
переклад: оригінал
кодек: 5.1
бітрейт: 448 кб/с

Аудіо # 4:
мова: англійська (Commentary)
переклад: оригінал
кодек: 2.0
бітрейт: 192 кб/с

Субтитри:
мова: англійська
тип: програмні (м'які)
формат: *.srt
Info
General
Unique ID : 240586237726289747273991878895824343700 (0xB4FF39546C74B075A7658D4DCD551294)
Complete name : D:\Toloka\2020\Spartan (2004) 720p.
Format :
Format version : Version 4
File size : 3.27 GiB
Duration : 1 h 46 min
Overall bit rate : 4 402 kb/s
Movie name : Spartan (2004)
Encoded date : UTC 2020-08-29 18:00:43
Writing application : v6.1.0 ('Old Devil') built on Mar 4 2013 09:10:42
Writing library : libebml v1.3.0 + v1.4.0

Video
ID : 1
Format : AVC
Format/Info : Advanced Video Codec
Format profile : [email protected]
Format settings : CABAC / 11 Ref Frames
Format settings, CABAC : Yes
Format settings, Reference : 11 frames
Codec ID : V_MPEG4/ISO/AVC
Duration : 1 h 46 min
Bit rate : 3 291 kb/s
Width : 1 280 pixels
Height : 546 pixels
Display aspect ratio : 2.35:1
Frame rate mode : Constant
Frame rate : 23.976 (24000/1001) FPS
Color space : YUV
Chroma subsampling : 4:2:0
Bit depth : 8 bits
Scan type : Progressive
Bits/(Pixel*Frame) : 0.196
Stream size : 2.45 GiB (75%)
Writing library : core 161 r3018 db0d417
Encoding settings : cabac=1 / ref=11 / deblock=1:-3:-3 / analyse=0x3:0x133 / me=umh / subme=10 / psy=1 / psy_rd=1.00:0.00 / mixed_ref=1 / me_range=32 / chroma_me=1 / trellis=2 / 8x8dct=1 / cqm=0 / deadzone=21,11 / fast_pskip=0 / chroma_qp_offset=-2 / threads=6 / lookahead_threads=1 / sliced_threads=0 / nr=0 / decimate=1 / interlaced=0 / bluray_compat=0 / constrained_intra=0 / bframes=12 / b_pyramid=2 / b_adapt=2 / b_bias=0 / direct=1 / weightb=1 / open_gop=0 / weightp=2 / keyint=250 / keyint_min=23 / scenecut=40 / intra_refresh=0 / rc_lookahead=60 / rc=crf / mbtree=0 / crf=18.5 / qcomp=0.60 / qpmin=0 / qpmax=69 / qpstep=4 / vbv_maxrate=50000 / vbv_bufsize=62500 / crf_max=0.0 / nal_hrd=none / filler=0 / ip_ratio=1.40 / pb_ratio=1.30 / aq=3:0.80
Language : English
Default : Yes
Forced : No
Color range : Limited
Color primaries : BT.709
Transfer characteristics : BT.709
Matrix coefficients : BT.709

Audio #1
ID : 2
Format : AC-3
Format/Info : Audio Coding 3
Commercial name : Dolby Digital
Codec ID : A_AC3
Duration : 1 h 46 min
Bit rate mode : Constant
Bit rate : 192 kb/s
Channel(s) : 2 channels
Channel layout : L R
Sampling rate : 48.0 kHz
Frame rate : 31.250 FPS (1536 SPF)
Compression mode : Lossy
Stream size : 146 MiB (4%)
Title : UKR (HTH, AMC)
Language : Ukrainian
Service kind : Complete Main
Default : Yes
Forced : Yes

Audio #2
ID : 3
Format : AC-3
Format/Info : Audio Coding 3
Commercial name : Dolby Digital
Codec ID : A_AC3
Duration : 1 h 46 min
Bit rate mode : Constant
Bit rate : 192 kb/s
Channel(s) : 2 channels
Channel layout : L R
Sampling rate : 48.0 kHz
Frame rate : 31.250 FPS (1536 SPF)
Compression mode : Lossy
Stream size : 146 MiB (4%)
Title : UKR (ICTV)
Language : Ukrainian
Service kind : Complete Main
Default : No
Forced : No

Audio #3
ID : 4
Format : AC-3
Format/Info : Audio Coding 3
Commercial name : Dolby Digital
Codec ID : A_AC3
Duration : 1 h 46 min
Bit rate mode : Constant
Bit rate : 448 kb/s
Channel(s) : 6 channels
Channel layout : L R C LFE Ls Rs
Sampling rate : 48.0 kHz
Frame rate : 31.250 FPS (1536 SPF)
Compression mode : Lossy
Stream size : 341 MiB (10%)
Title : ENG
Language : English
Service kind : Complete Main
Default : No
Forced : No

Audio #4
ID : 5
Format : AC-3
Format/Info : Audio Coding 3
Commercial name : Dolby Digital
Codec ID : A_AC3
Duration : 1 h 46 min
Bit rate mode : Constant
Bit rate : 192 kb/s
Channel(s) : 2 channels
Channel layout : L R
Sampling rate : 48.0 kHz
Frame rate : 31.250 FPS (1536 SPF)
Compression mode : Lossy
Stream size : 146 MiB (4%)
Title : Commentary
Language : English
Service kind : Complete Main
Default : No
Forced : No

Text
ID : 6
Format : UTF-8
Codec ID : S_TEXT/UTF8
Codec ID/Info : UTF-8 Plain Text
Title : ENG
Language : English
Default : No
Forced : No
Скріншоти






За доріжки подяка п.: igrik09, nick_89, РОМЕО, Arsenfpu
Особиста подяка пану denixx за надану матеріальну допомогу на підтримку цього і майбутніх релізів.
Джерело:


 Трекер:    Зареєстрований   

Завантажити / скачати фільм українською



відео для новачків



 Зареєстрований:   2020-08-29 21:15
 Розмір:   3.27 GB 
 Оцінка фільму:   10/10 (Голосів: 2)
   
Інші релізи
Ваш часовий пояс: GMT + 2 Години

Нова тема   Відповісти