Формула 1. Сезон 2020. Етап 7. Гран-Прі Бельгії. Кваліфікація (29.08.2020) IPTV 1080p Ukr/Eng/Int

Нові коментарі

Нова тема   Відповісти
Автор Повідомлення
sergiyko.5 
VIP


З нами з: 25.02.16
Востаннє: 27.10.20
Повідомлень: 3633

2020-08-29 16:32  
Формула 1. Сезон 2020. Етап 7. Гран-Прі Бельгії. Кваліфікація (29.08.2020) IPTV 1080p Ukr/Eng/Int


Формула 1. Сезон 2020. Етап 7. Гран-Прі Бельгії. Кваліфікація (29.08.2020) IPTV 1080p Ukr/Eng/Int

Жанр: Перегони Формули 1
Країна: Бельгія
Телеканал: F1TV
Коментар: Максим Подзігун, англійською

Опис:
Кваліфікація сьомого етапу Гран-Прі Бельгії 2020 року.


Якість: IPTV

Відео: кодек: розмір кадру: 1920 х 1080 бітрейт: 6000 кб/с 25 кад/с
Аудіо 1: мова: українська кодек: 2.0 бітрейт: 192 кб/с
Аудіо 2: мова: англійська кодек: 2.0 бітрейт: 192 кб/с
Аудіо 3: мова: - кодек: 2.0 бітрейт: 192 кб/с
Тривалість:
01:26:12
Про файл:
General
Unique ID : 13681721497144271929640910148931958430 (0xA4B00F34893B9C9C27B7CDCD54C369E)
Complete name : D:\Documents\Torrents\SPORT\Formula 1\F1.2020.07.Belgium.Qualifying.1080p.IPTV.Ukr.Eng.Int.
Format :
Format version : Version 4
File size : 3.66 GiB
Duration : 1 h 26 min
Overall bit rate mode : Constant
Overall bit rate : 6 076 kb/s
Encoded date : UTC 2020-08-29 15:12:27
Writing application : v49.0.0 ('Sick Of Losing Soulmates') 64-bit
Writing library : libebml v1.4.0 + v1.6.1

Video
ID : 1
Format : AVC
Format/Info : Advanced Video Codec
Format profile : [email protected]
Format settings : CABAC / 4 Ref Frames
Format settings, CABAC : Yes
Format settings, Reference : 4 frames
Format settings, GOP : M=4, N=50
Codec ID : V_MPEG4/ISO/AVC
Duration : 1 h 26 min
Bit rate mode : Constant
Bit rate : 5 500 kb/s
Width : 1 920 pixels
Height : 1 080 pixels
Display aspect ratio : 16:9
Frame rate mode : Constant
Frame rate : 25.000 FPS
Color space : YUV
Chroma subsampling : 4:2:0
Bit depth : 8 bits
Scan type : Progressive
Bits/(Pixel*Frame) : 0.106
Stream size : 3.31 GiB (90%)
Language : English
Default : Yes
Forced : No

Audio #1
ID : 2
Format : AC-3
Format/Info : Audio Coding 3
Commercial name : Dolby Digital
Codec ID : A_AC3
Duration : 1 h 26 min
Bit rate mode : Constant
Bit rate : 192 kb/s
Channel(s) : 2 channels
Channel layout : L R
Sampling rate : 48.0 kHz
Frame rate : 31.250 FPS (1536 SPF)
Compression mode : Lossy
Delay relative to video : 24 ms
Stream size : 118 MiB (3%)
Title : Максим Подзігун
Language : Ukrainian
Service kind : Complete Main
Default : Yes
Forced : Yes

Audio #2
ID : 3
Format : AC-3
Format/Info : Audio Coding 3
Commercial name : Dolby Digital
Codec ID : A_AC3
Duration : 1 h 26 min
Bit rate mode : Constant
Bit rate : 192 kb/s
Channel(s) : 2 channels
Channel layout : L R
Sampling rate : 48.0 kHz
Frame rate : 31.250 FPS (1536 SPF)
Compression mode : Lossy
Delay relative to video : 24 ms
Stream size : 118 MiB (3%)
Title : Sky Sports F1
Language : English
Service kind : Complete Main
Default : No
Forced : No

Audio #3
ID : 4
Format : AC-3
Format/Info : Audio Coding 3
Commercial name : Dolby Digital
Codec ID : A_AC3
Duration : 1 h 26 min
Bit rate mode : Constant
Bit rate : 192 kb/s
Channel(s) : 2 channels
Channel layout : L R
Sampling rate : 48.0 kHz
Frame rate : 31.250 FPS (1536 SPF)
Compression mode : Lossy
Delay relative to video : 24 ms
Stream size : 118 MiB (3%)
Title : Int
Service kind : Complete Main
Default : No
Forced : No
Скріншоти:


Запис/зведення: sergiyko



 Трекер:    Зареєстрований   

Завантажити / скачати торрент



відео для новачків



 Зареєстрований:   2020-08-29 17:16
 Розмір:   3.66 GB 
 Оцінка:   10/10 (Голосів: 25)
   
Ваш часовий пояс: GMT + 2 Години

Нова тема   Відповісти