Люцифер (Сезон 5, серія 1) / Lucifer (Season 5, episode 1) (2020) AVC Ukr/Eng

Нові коментарі

Нова тема   Відповісти
Автор Повідомлення
Цікава ідея 
VIP


З нами з: 26.12.11
Востаннє: 29.09.20
Повідомлень: 668

2020-08-29 13:50  
AVC | 1080p

Люцифер (Сезон 5, серія 1) / Lucifer (Season 5, episode 1) (2020) AVC Ukr/Eng


Люцифер (Сезон 5, серія 1) / Lucifer (Season 5, episode 1) (2020) AVC Ukr/Eng


Жанр: кримінальний, драма, містика
Країна: США



Кінокомпанія / телеканал: Netflix, Aggressive Mediocrity, DC Entertainment (in association with), Jerry Bruckheimer Television, Vertigo Entertainment, Warner Bros. Television
Режисери: Луїс Шоу Міліто, Шервін Шілаті, Сем Гілл
Актори: Том Елліс, Лорен Джерман, Кевін Алехандро, Д.Б. Вудсайд, Леслі-Енн Брандт, Рейчел Гарріс, Еймі Гарсія, Інбар Лаві, Грем МакТевіш, Вінесса Відотто, Ерік Стоклін, Амерікус Абесаміс, Палома Альварес, Маркус Андерсон, ЛаФонда Бейкер, Денні Лав, Саша Ройз

Сюжет:
Протягом багатьох тисяч років Люцифер жив в пеклі. Але одного разу ексцентричному і привабливого королю пекла набридає сидіти в своїх володіннях, і він приймає рішення перекочувати не куди-небудь, а в Лос-Анджелес, щоб сповна насолодитися життям в сучасному суспільстві. Там він відкриває власний нічний заклад, де і проводить більшу частину часу. До певного моменту все складається якнайкраще, але одного разу прямо на порозі його клубу невідомі жорстоко вбивають молоду співачку, до якої наш герой був небайдужий. Вдавшись до своїх надприродних здібностей, король пекла переконує поліцію взяти його в помічники, після чого, об'єднавши зусилля з досвідченим детективом поліції, він береться за розслідування цього злочину. З цього моменту його перебування в світі людей набуває зовсім інший зміст, і попереду Люцифера чекає безліч захоплюючих пригод, в яких йому не раз доведеться скористатися своїми незвичайними здібностями...


Перекладено та озвучено ТО "Цікава Ідея"


Тривалість: 1 серія: ~ 60 хв. (цілком серій: 1/16)
Перелік серій:

01. Really Sad Devil Guy
02. —
03. —
04. —
05. —
06. —
07. —
08. —
09. —
10. —
11. —
12. —
13. —
14. —
15. —
16. —
Якість: AVC
Відео:
кодек:
розмір кадру: 720 x 400
бітрейт: ~ 1100 кб/с

Аудіо # 1:
мова: українська | "Цікава Ідея"
переклад: професійний багатоголосий закадровий
кодек: 5.1
бітрейт: 448 кб/с

Аудіо # 2:
мова: англійська
переклад: оригінал
кодек: E- 5.1
бітрейт: 640 кб/с
Info
Код:
Format                      :
Format version              : Version 4
File size                   : 802 MiB
Duration                    : 51 min 49 s
Overall bit rate            : 2 164 kb/s
Movie name                  : Люцифер / Lucifer - S05E01 (2020) AVC [Ukr.Eng] [Цікава Ідея]
Encoded date                : UTC 2020-08-22 18:07:27
Writing application         : v6.8.0 ('Theme for Great Cities') 32bit built on Mar  2 2014 21:27:07
Writing library             : libebml v1.3.0 + v1.4.1
Cover                       : Yes
Attachments                 : cover.jpg

Video
ID                          : 1
Format                      : AVC
Format/Info                 : Advanced Video Codec
Format profile              : [email protected]
Format settings             : CABAC / 5 Ref Frames
Format settings, CABAC      : Yes
Format settings, Reference  : 5 frames
Codec ID                    : V_MPEG4/ISO/AVC
Duration                    : 51 min 49 s
Bit rate                    : 1 033 kb/s
Nominal bit rate            : 1 100 kb/s
Width                       : 720 pixels
Height                      : 400 pixels
Display aspect ratio        : 16:9
Frame rate mode             : Constant
Frame rate                  : 23.976 (24000/1001) FPS
Color space                 : YUV
Chroma subsampling          : 4:2:0
Bit depth                   : 8 bits
Scan type                   : Progressive
Bits/(Pixel*Frame)          : 0.150
Stream size                 : 383 MiB (48%)
Writing library             : core 148 r2795M aaa9aa8
Encoding settings           : cabac=1 / ref=5 / deblock=1:-1:-1 / analyse=0x3:0x113 / me=umh / subme=9 / psy=1 / psy_rd=1.00:0.15 / mixed_ref=1 / me_range=16 / chroma_me=1 / trellis=2 / 8x8dct=1 / cqm=0 / deadzone=21,11 / fast_pskip=1 / chroma_qp_offset=-3 / threads=24 / lookahead_threads=2 / sliced_threads=0 / nr=0 / decimate=1 / interlaced=0 / bluray_compat=0 / constrained_intra=0 / bframes=3 / b_pyramid=2 / b_adapt=2 / b_bias=0 / direct=3 / weightb=1 / open_gop=0 / weightp=2 / keyint=250 / keyint_min=23 / scenecut=40 / intra_refresh=0 / rc_lookahead=50 / rc=abr / mbtree=1 / bitrate=1100 / ratetol=1.0 / qcomp=0.60 / qpmin=0 / qpmax=69 / qpstep=4 / ip_ratio=1.40 / aq=1:1.00
Default                     : Yes
Forced                      : No

Audio #1
ID                          : 2
Format                      : AC-3
Format/Info                 : Audio Coding 3
Commercial name             : Dolby Digital
Codec ID                    : A_AC3
Duration                    : 51 min 49 s
Bit rate mode               : Constant
Bit rate                    : 448 kb/s
Channel(s)                  : 6 channels
Channel layout              : L R C LFE Ls Rs
Sampling rate               : 48.0 kHz
Frame rate                  : 31.250 FPS (1536 SPF)
Bit depth                   : 16 bits
Compression mode            : Lossy
Stream size                 : 166 MiB (21%)
Title                       : Цікава Ідея
Language                    : Ukrainian
Service kind                : Complete Main
Default                     : Yes
Forced                      : No

Audio #2
ID                          : 3
Format                      : E-AC-3
Format/Info                 : Enhanced AC-3
Commercial name             : Dolby Digital Plus
Codec ID                    : A_EAC3
Duration                    : 51 min 49 s
Bit rate mode               : Constant
Bit rate                    : 640 kb/s
Channel(s)                  : 6 channels
Channel layout              : L R C LFE Ls Rs
Sampling rate               : 48.0 kHz
Frame rate                  : 31.250 FPS (1536 SPF)
Compression mode            : Lossy
Stream size                 : 237 MiB (30%)
Title                       : English
Language                    : English
Service kind                : Complete Main
Default                     : No
Forced                      : No
Скріншоти



Перекладено та озвучено творчим об'єднанням:


Авторський реліз (завантажувати можна без реєстрації)
 Трекер:    Зареєстрований   

Завантажити / скачати серіал українською



відео для новачків



 Зареєстрований:   2020-08-29 13:52
 Розмір:   802 MB 
 Оцінка серіалу:   9.9/10 (Голосів: 11)
   
S3M4RiL 
VIP


З нами з: 25.09.16
Востаннє: 28.09.20
Повідомлень: 347

2020-09-05 13:08  
А де решта серій? Я знаю на вашому сайті вони є.
Цікава ідея 
VIP


З нами з: 26.12.11
Востаннє: 29.09.20
Повідомлень: 668

2020-09-05 13:09  
S3M4RiL
Дивіться поки онлайн.

olal 
Новенький


З нами з: 14.04.15
Востаннє: 26.09.20
Повідомлень: 1

2020-09-26 05:48  
пробачте але ж нудно.. на лостфільмі.. клятою москальською мовою…. але краще?
Ваш часовий пояс: GMT + 2 Години

Нова тема   Відповісти