Незнайомка (Сезон 1) / The Stranger (Season 1) (2020) Ukr/Eng

Нові коментарі

Нова тема   Відповісти
Автор Повідомлення
Anonymous 







2020-08-28 18:47  
| AVC | 1080p

Незнайомка (Сезон 1) / The Stranger (Season 1) (2020) Ukr/Eng


Незнайомка (Сезон 1) / The Stranger (Season 1) (2020) Ukr/Eng


Жанр: драма, кримінал, трилер
Країна: Велика Британія



Кінокомпанія / телеканал: Red Production Company, Netflix
Режисери: Деніел О'Хара
Актори: Ханна Джон-Кеймен, Річард Армітедж, Шон Дулі, Шива Фіннеран, Джейк Дадмен, Міша Хендлі, Ентоні Хед, Пол Кей та інші.

Сюжет:
Адам Прайс - щасливий чоловік і батько, чиє життя летить під укіс, коли незнайомка розкриває йому секрет про його дружину Корінн. Шокуюче відкриття перетворює життя Адама в смертельно небезпечну інтригу, де будь-яка необережність може привести до загибелі.


Перекладено та озвучено ТО "Цікава Ідея" за підтримки fishMD


Тривалість: 1 серія: ~ 45 хв. (цілком серій: 8)
Перелік серій:

01. Episode #1.1
02. Episode #1.2
03. Episode #1.3
04. Episode #1.4
05. Episode #1.5
06. Episode #1.6
07. Episode #1.7
08. Episode #1.8
Якість:
Відео:
кодек:
розмір кадру: 704x352
бітрейт: ~ 1768 - 2331 кб/с

Аудіо # 1:
мова: українська | "Цікава Ідея"
переклад: професійний багатоголосий закадровий
кодек: 5.1
бітрейт: 448 кб/с

Аудіо # 2:
мова: англійська
переклад: оригінал
кодек: 5.1
бітрейт: 448 кб/с
Info
Код:
General
Complete name                            : The Stranger\The Stranger - S01E01 (2020) [Ukr.Eng] [Цікава Ідея].avi
Format                                   : AVI
Format/Info                              : Audio Video Interleave
Format profile                           : OpenDML
File size                                : 1.02 GiB
Duration                                 : 51 min 44 s
Overall bit rate                         : 2 812 kb/s
Movie name                               : Незнайомка / The Stranger - S01E01 (2020) 1080p [Ukr.Eng] [Цікава Ідея]
Writing application                      : Lavf58.20.100

Video
ID                                       : 0
Format                                   : MPEG-4 Visual
Format profile                           : Advanced [email protected]
Format settings                          : BVOP1
Format settings, BVOP                    : 1
Format settings, QPel                    : No
Format settings, GMC                     : No warppoints
Format settings, Matrix                  : Default (H.263)
Codec ID                                 :
Codec ID/Hint                            :
Duration                                 : 51 min 44 s
Bit rate                                 : 1 894 kb/s
Width                                    : 704 pixels
Height                                   : 352 pixels
Display aspect ratio                     : 2.000
Frame rate                               : 25.000 FPS
Color space                              : YUV
Chroma subsampling                       : 4:2:0
Bit depth                                : 8 bits
Scan type                                : Progressive
Compression mode                         : Lossy
Bits/(Pixel*Frame)                       : 0.306
Stream size                              : 701 MiB (67%)
Writing library                          : 67

Audio #1
ID                                       : 1
Format                                   : AC-3
Format/Info                              : Audio Coding 3
Commercial name                          : Dolby Digital
Codec ID                                 : 2000
Duration                                 : 51 min 44 s
Bit rate mode                            : Constant
Bit rate                                 : 448 kb/s
Channel(s)                               : 6 channels
Channel layout                           : L R C LFE Ls Rs
Sampling rate                            : 48.0 kHz
Frame rate                               : 31.250 FPS (1536 SPF)
Bit depth                                : 16 bits
Compression mode                         : Lossy
Stream size                              : 166 MiB (16%)
Alignment                                : Aligned on interleaves
Interleave, duration                     : 32  ms (0.80 video frame)
Title                                    : Цікава Ідея
Service kind                             : Complete Main

Audio #2
ID                                       : 2
Format                                   : AC-3
Format/Info                              : Audio Coding 3
Commercial name                          : Dolby Digital
Codec ID                                 : 2000
Duration                                 : 51 min 44 s
Bit rate mode                            : Constant
Bit rate                                 : 448 kb/s
Channel(s)                               : 6 channels
Channel layout                           : L R C LFE Ls Rs
Sampling rate                            : 48.0 kHz
Frame rate                               : 31.250 FPS (1536 SPF)
Bit depth                                : 16 bits
Compression mode                         : Lossy
Stream size                              : 166 MiB (16%)
Alignment                                : Aligned on interleaves
Interleave, duration                     : 32  ms (0.80 video frame)
Title                                    : English
Service kind                             : Complete Main
Скріншоти







Перекладено та озвучено творчим об'єднанням:
Ролі озвучили: Семен Птаха, Юлія Малахова, Андрій Корзаченко, Ганна Квочкіна, Матвій Ніколаєв та Олексій Сафін
Джерело:
Особиста оцінка: 8 - мені сподобалося


Авторський реліз (завантажувати можна без реєстрації)
 Трекер:    Зареєстрований   

Завантажити / скачати серіал українською



відео для новачків



 Зареєстрований:   2020-08-28 18:47
 Розмір:   7.99 GB 
 Оцінка серіалу:   9.2/10 (Голосів: 14)
   
krabapka 
Свій


З нами з: 15.08.15
Востаннє: 24.09.20
Повідомлень: 97

2020-09-04 19:12  
Цікаво. Тримає у напрузі. Ну і картинки гарної Британії... Люблю такеHappy
atman_valery 
Свій


З нами з: 12.01.11
Востаннє: 25.09.20
Повідомлень: 95

2020-09-05 18:34  
дякую, рекомендую до перегляду!
Ваш часовий пояс: GMT + 2 Години

Нова тема   Відповісти