Ліло та Стіч. Дилогія / Lilo & Stitch. Dilogy (2002-2005) 1080p H.265 Ukr/Eng | Sub Ukr/Eng

Нові коментарі

Нова тема   Відповісти
Автор Повідомлення
Anonymous 







2020-08-28 14:20  
Ліло та Стіч. Дилогія / Lilo & Stitch. Dilogy (2002-2005) 1080p H.265 Ukr/Eng | Sub Ukr/Eng

Ліло та Стіч. Дилогія / Lilo & Stitch. Dilogy (2002-2005) 1080p H.265 Ukr/Eng | Sub Ukr/Eng

1. 2.

1. Ліло та Стіч / Lilo & Stitch (2002) 1080p H.265 Ukr/Eng | Sub Ukr/Eng
Ліло та Стіч / Lilo & Stitch (2002) 1080p H.265 Ukr/Eng | Sub Ukr/Eng

Ліло та Стіч. Дилогія / Lilo & Stitch. Dilogy (2002-2005) 1080p H.265 Ukr/Eng | Sub Ukr/Eng


Жанр: мультфільм, фантастика, комедія, пригоди, сімейний
Країна: США
Кінокомпанія: Walt Disney Feature Animation, Walt Disney Pictures
Режисер: Дін ДеБлуа / Dean DeBlois, Кріс Сандерс / Chris Sanders
Ролі озвучують: Дейві Чейз / Daveigh Chase (Lilo), Кріс Сандерс / Chris Sanders, Тіа Каррере, Девід Огден Стаєрс, Кевін МакДоналд, Вінг Реймс, Зоі Кедвел, Джейсон Скот Лі, Кевін Майкл Річардсон, Сюзан Хегерті, Емі Хілл.

Сюжет:
Ліло - маленька дівчинка, що живе на Гаваях. Вона сирота і живе разом зі своєю старшою сестрою Нанні. Ліло любить всіх тварин, але найбільше вона подружилася з собачкою на ім'я Стіч, яка насправді зовсім не собачка, а - замаскований інопланетянин. Справа була так: якось злочинця на ім'я Стіч переправляли в галактичну в'язницю, але йому вдалося вислизнути і приземлитися на Землі, де він і зустрів Ліло. І тут Стіч прикинувся собакою, щоб сховатися від переслідування галактичної поліції. Тепер Стіч вчиться тому, чому не був навчений - турботі про інших ...

Тривалість: 01:25:14
Якість:

Відео:
кодек: H.265 (HEVC)
розмір кадру: 1820 x 1080
бітрейт: 4 065 кб/с
бітова глибина: 10 біт

Увага! Перед завантаженням переконайтесь, що ваш пристрій відтворення (та/або ПЗ) підтримує H.265 (HEVC)

Аудіо # 1:
мова: українська
переклад: професійний дубльований | Студія LeDoyen
кодек: AC-3 2.0
бітрейт: 192 кб/с

Аудіо # 2:
мова: англійська
переклад: оригінал
кодек: 5.1
бітрейт: 1510 кб/с

Субтитри # 1-2: (Forced, Full)
мова: українська
тип: програмні (м'які)
формат: *.srt

Субтитри # 3-4: (Full, SDH)
мова: англійська
тип: програмні (м'які)
формат: *.srt


Info
Код:
General
Unique ID                                : 218472457042758100523684311929222516283 (0xA45C43C3A861ABB30E862339E6AACE3B)
Complete name                            : 01. Lilo & Stitch (2002) 1080p H.265 [UKR_ENG] [Hurtom].
Format                                   :
Format version                           : Version 4
File size                                : 3.44 GiB
Duration                                 : 1 h 25 min
Overall bit rate                         : 5 766 kb/s
Movie name                               : Ліло та Стіч / Lilo & Stitch (2002)
Encoded date                             : UTC 2020-08-26 22:25:19
Writing application                      : v20.0.0 ('I Am The Sun') 64-bit
Writing library                          : libebml v1.3.5 + v1.4.8
Cover                                    : Yes
Attachments                              : Cover.jpg

Video
ID                                       : 1
Format                                   : HEVC
Format/Info                              : High Efficiency Video Coding
Format profile                           : Main [email protected]@High
Codec ID                                 : V_MPEGH/ISO/HEVC
Duration                                 : 1 h 25 min
Bit rate                                 : 4 065 kb/s
Width                                    : 1 820 pixels
Height                                   : 1 080 pixels
Display aspect ratio                     : 5:3
Frame rate mode                          : Constant
Frame rate                               : 23.976 (23976/1000) FPS
Original frame rate                      : 23.976 (24000/1001) FPS
Color space                              : YUV
Chroma subsampling                       : 4:2:0
Bit depth                                : 10 bits
Bits/(Pixel*Frame)                       : 0.086
Stream size                              : 2.42 GiB (70%)
Title                                    : Ліло та Стіч / Lilo & Stitch (2002)
Writing library                          : x265 3.3+1-g554c887ac:[Windows][MSVC 1924][64 bit] 10bit
Encoding settings                        : cpuid=1111039 / frame-threads=3 / numa-pools=12 / wpp / no-pmode / no-pme / no-psnr / no-ssim / log-level=2 / input-csp=1 / input-res=1820x1080 / interlace=0 / total-frames=122627 / level-idc=41 / high-tier=1 / uhd-bd=0 / ref=5 / no-allow-non-conformance / no-repeat-headers / annexb / no-aud / no-hrd / info / hash=0 / no-temporal-layers / open-gop / min-keyint=23 / keyint=240 / gop-lookahead=0 / bframes=12 / b-adapt=2 / b-pyramid / bframe-bias=0 / rc-lookahead=60 / lookahead-slices=4 / scenecut=40 / hist-scenecut=0 / radl=0 / no-splice / no-intra-refresh / ctu=32 / min-cu-size=8 / rect / amp / max-tu-size=32 / tu-inter-depth=4 / tu-intra-depth=4 / limit-tu=1 / rdoq-level=2 / dynamic-rd=0.00 / no-ssim-rd / signhide / no-tskip / nr-intra=0 / nr-inter=0 / no-constrained-intra / no-strong-intra-smoothing / max-merge=4 / limit-refs=2 / limit-modes / me=3 / subme=7 / merange=57 / temporal-mvp / no-frame-dup / no-hme / weightp / weightb / no-analyze-src-pics / deblock=-3:-3 / no-sao / no-sao-non-deblock / rd=6 / selective-sao=0 / no-early-skip / no-rskip / no-fast-intra / no-tskip-fast / no-cu-lossless / no-b-intra / no-splitrd-skip / rdpenalty=0 / psy-rd=2.00 / psy-rdoq=1.00 / no-rd-refine / no-lossless / cbqpoffs=0 / crqpoffs=0 / rc=crf / crf=20.0 / qcomp=0.65 / qpstep=4 / stats-write=0 / stats-read=0 / vbv-maxrate=50000 / vbv-bufsize=50000 / vbv-init=0.9 / crf-max=0.0 / crf-min=0.0 / ipratio=1.40 / pbratio=1.30 / aq-mode=1 / aq-strength=1.00 / no-cutree / zone-count=0 / no-strict-cbr / qg-size=32 / no-rc-grain / qpmax=69 / qpmin=0 / no-const-vbv / sar=1 / overscan=0 / videoformat=5 / range=0 / colorprim=1 / transfer=1 / colormatrix=1 / chromaloc=0 / display-window=0 / cll=0,0 / min-luma=0 / max-luma=1023 / log2-max-poc-lsb=8 / vui-timing-info / vui-hrd-info / slices=1 / no-opt-qp-pps / no-opt-ref-list-length-pps / no-multi-pass-opt-rps / scenecut-bias=0.05 / hist-threshold=0.01 / no-opt-cu-delta-qp / no-aq-motion / no-hdr10 / no-hdr10-opt / no-dhdr10-opt / no-idr-recovery-sei / analysis-reuse-level=0 / analysis-save-reuse-level=0 / analysis-load-reuse-level=0 / scale-factor=0 / refine-intra=0 / refine-inter=0 / refine-mv=1 / refine-ctu-distortion=0 / no-limit-sao / ctu-info=0 / no-lowpass-dct / refine-analysis-type=0 / copy-pic=1 / max-ausize-factor=1.0 / no-dynamic-refine / no-single-sei / no-hevc-aq / no-svt / no-field / qp-adaptation-range=1.00 / no-scenecut-aware-qpconformance-window-offsets / right=0 / bottom=0
Default                                  : Yes
Forced                                   : No
Color range                              : Limited
Color primaries                          : BT.709
Transfer characteristics                 : BT.709
Matrix coefficients                      : BT.709

Audio #1
ID                                       : 2
Format                                   : AC-3
Format/Info                              : Audio Coding 3
Commercial name                          : Dolby Digital
Codec ID                                 : A_AC3
Duration                                 : 1 h 25 min
Bit rate mode                            : Constant
Bit rate                                 : 192 kb/s
Channel(s)                               : 2 channels
Channel layout                           : L R
Sampling rate                            : 48.0 kHz
Frame rate                               : 31.250 FPS (1536 SPF)
Compression mode                         : Lossy
Stream size                              : 117 MiB (3%)
Title                                    : / 2.0 Ch / 192 kbps / DUB / Disney Channel / Студія LeDoyen
Language                                 : Ukrainian
Service kind                             : Complete Main
Default                                  : Yes
Forced                                   : Yes

Audio #2
ID                                       : 3
Format                                   :
Format/Info                              : Digital Theater Systems
Codec ID                                 : A_DTS
Duration                                 : 1 h 25 min
Bit rate mode                            : Constant
Bit rate                                 : 1 509 kb/s
Channel(s)                               : 6 channels
Channel layout                           : C L R Ls Rs LFE
Sampling rate                            : 48.0 kHz
Frame rate                               : 93.750 FPS (512 SPF)
Bit depth                                : 24 bits
Compression mode                         : Lossy
Stream size                              : 921 MiB (26%)
Title                                    : / 5.1 Ch / 1509 kbps / Original
Language                                 : English
Default                                  : No
Forced                                   : No

Text #1
ID                                       : 4
Format                                   : UTF-8
Codec ID                                 : S_TEXT/UTF8
Codec ID/Info                            : UTF-8 Plain Text
Duration                                 : 19 min 7 s
Bit rate                                 : 1 b/s
Count of elements                        : 7
Stream size                              : 255 Bytes (0%)
Title                                    : Forced
Language                                 : Ukrainian
Default                                  : Yes
Forced                                   : Yes

Text #2
ID                                       : 5
Format                                   : UTF-8
Codec ID                                 : S_TEXT/UTF8
Codec ID/Info                            : UTF-8 Plain Text
Duration                                 : 1 h 17 min
Bit rate                                 : 84 b/s
Count of elements                        : 1179
Stream size                              : 47.8 KiB (0%)
Title                                    : Full
Language                                 : Ukrainian
Default                                  : No
Forced                                   : No

Text #3
ID                                       : 6
Format                                   : UTF-8
Codec ID                                 : S_TEXT/UTF8
Codec ID/Info                            : UTF-8 Plain Text
Duration                                 : 1 h 16 min
Bit rate                                 : 46 b/s
Count of elements                        : 949
Stream size                              : 26.2 KiB (0%)
Title                                    : Full
Language                                 : English
Default                                  : No
Forced                                   : No

Text #4
ID                                       : 7
Format                                   : UTF-8
Codec ID                                 : S_TEXT/UTF8
Codec ID/Info                            : UTF-8 Plain Text
Duration                                 : 1 h 23 min
Bit rate                                 : 69 b/s
Count of elements                        : 1797
Stream size                              : 42.5 KiB (0%)
Title                                    : SDH
Language                                 : English
Default                                  : No
Forced                                   : No

Menu
00:00:00.000                             : en:Jumba's Trial
00:02:55.884                             : en:Stitch Escapes
00:06:33.893                             : en:"Where Is He?"
00:08:29.383                             : en:Jumba's Deal
00:09:57.972                             : en:Main Title ("He Mele No Lilo")
00:14:55.895                             : en:Cobra's Visit
00:19:58.822                             : en:Fight
00:21:31.999                             : en:Bedtime Wish
00:23:54.391                             : en:Stitch Meets Truck
00:24:54.951                             : en:Lilo Adopts Stitch
00:28:41.261                             : en:Island Escape
00:30:26.491                             : en:Dysfunctional Angel
00:31:43.943                             : en:Luau Dinner
00:35:00.348                             : en:New Puppy Comes Home
00:36:37.653                             : en:Bedtie
00:39:30.159                             : en:Ugly Duckling
00:40:59.748                             : en:Model Citizen
00:46:05.012                             : en:Surfing ("Hawaiian Roller Coaster Ride")
00:49:34.012                             : en:Stitch Drowns
00:50:25.689                             : en:Aftermath On The Beach
00:52:08.291                             : en:Aloha 'Oe
00:55:11.433                             : en:"I'm Lost"
00:55:48.887                             : en:"We're Fired"
00:57:18.977                             : en:Jumba Attacks
01:02:33.624                             : en:Nani Loses Custody
01:03:41.150                             : en:Gantu Captures Lilo
01:05:07.153                             : en:'Ohana Means Family
01:07:53.235                             : en:Rescue
01:13:53.804                             : en:"This Is My Family"
01:17:18.634                             : en:Hawaii Forever/End Credits
Світлини



2. Ліло та Стіч 2 / Lilo & Stitch 2: Stitch Has a Glitch (2005) 1080p H.265 Ukr/Eng | Sub Ukr/Eng
Ліло та Стіч 2 / Lilo & Stitch 2: Stitch Has a Glitch (2005) 1080p H.265 Ukr/Eng | Sub Ukr/Eng

Ліло та Стіч. Дилогія / Lilo & Stitch. Dilogy (2002-2005) 1080p H.265 Ukr/Eng | Sub Ukr/Eng


Жанр: мультфільм, фантастика, драма, комедія, сімейний
Країна: США
Кінокомпанія: DisneyToon Studios
Режисер: Майкл ЛаБаш / Michael LaBash, Ентоні Леондіс / Anthony Leondis
Ролі озвучують: Кріс Сандерс / Chris Sanders, Дакота Феннінг / Dakota Fanning, Тіа Каррере / Tia Carrere, Девід Огден Стаєрс / David Ogden Stiers, Кевін МакДоналд / Kevin McDonald, Кунева Мук / Kunewa Mook, Джейсон Скот Лі / Jason Scott Lee, Вільям Дж.Капарелла / William J. Caparella, Холлістон Колеман / Holliston Coleman.

Сюжет:
Життя Стіча було веселим і безтурботним. Він допомагає Ліло піти по стопах її матері в підготовці до великого танцювального конкурсу на острові. Життя здається ідеальним, поки Стіч не потрапляє в скрутне становище, і тоді все йде шкереберть. І ось прийшла пора Ліло, Нанні, Джамбо та усій їх великій сім'ї послідувати законам «Охани» і прийти на допомогу маленькому веселому другу.

Тривалість: 01:08:03
Якість:

Відео:
кодек: H.265 (HEVC)
розмір кадру: 1920 x 1080
бітрейт: 5 113 кб/с
бітова глибина: 10 біт

Увага! Перед завантаженням переконайтесь, що ваш пристрій відтворення (та/або ПЗ) підтримує H.265 (HEVC)

Аудіо # 1:
мова: українська
переклад: професійний дубльований
кодек: AC-3 2.0
бітрейт: 192 кб/с

Аудіо # 2:
мова: англійська
переклад: оригінал
кодек: 5.1
бітрейт: 1510 кб/с

Субтитри # 1: (Full)
мова: українська
тип: програмні (м'які)
формат: *.srt

Субтитри # 2-3: (Full, SDH)
мова: англійська
тип: програмні (м'які)
формат: *.srt


Info
Код:
General
Unique ID                                : 191204983881744062543475250208645898106 (0x8FD8BD8AAEFCD641D51EB62201A0DF7A)
Complete name                            : 02. Lilo & Stitch 2 - Stitch Has a Glitch (2005) 1080p H.265 [UKR_ENG] [Hurtom].
Format                                   :
Format version                           : Version 4
File size                                : 3.24 GiB
Duration                                 : 1 h 8 min
Overall bit rate                         : 6 808 kb/s
Movie name                               : Ліло та Стіч 2 / Lilo & Stitch 2: Stitch Has a Glitch (2005)
Encoded date                             : UTC 2020-08-26 22:28:02
Writing application                      : v20.0.0 ('I Am The Sun') 64-bit
Writing library                          : libebml v1.3.5 + v1.4.8
Cover                                    : Yes
Attachments                              : Cover.jpg

Video
ID                                       : 1
Format                                   : HEVC
Format/Info                              : High Efficiency Video Coding
Format profile                           : Main [email protected]@High
Codec ID                                 : V_MPEGH/ISO/HEVC
Duration                                 : 1 h 8 min
Bit rate                                 : 5 113 kb/s
Width                                    : 1 920 pixels
Height                                   : 1 080 pixels
Display aspect ratio                     : 16:9
Frame rate mode                          : Constant
Frame rate                               : 23.976 (23976/1000) FPS
Original frame rate                      : 23.976 (24000/1001) FPS
Color space                              : YUV
Chroma subsampling                       : 4:2:0
Bit depth                                : 10 bits
Bits/(Pixel*Frame)                       : 0.103
Stream size                              : 2.43 GiB (75%)
Title                                    : Ліло та Стіч 2 / Lilo & Stitch 2: Stitch Has a Glitch (2005)
Writing library                          : x265 3.3+1-g554c887ac:[Windows][MSVC 1924][64 bit] 10bit
Encoding settings                        : cpuid=1111039 / frame-threads=3 / numa-pools=12 / wpp / no-pmode / no-pme / no-psnr / no-ssim / log-level=2 / input-csp=1 / input-res=1920x1080 / interlace=0 / total-frames=97915 / level-idc=41 / high-tier=1 / uhd-bd=0 / ref=5 / no-allow-non-conformance / no-repeat-headers / annexb / no-aud / no-hrd / info / hash=0 / no-temporal-layers / open-gop / min-keyint=23 / keyint=240 / gop-lookahead=0 / bframes=12 / b-adapt=2 / b-pyramid / bframe-bias=0 / rc-lookahead=60 / lookahead-slices=4 / scenecut=40 / hist-scenecut=0 / radl=0 / no-splice / no-intra-refresh / ctu=32 / min-cu-size=8 / rect / amp / max-tu-size=32 / tu-inter-depth=4 / tu-intra-depth=4 / limit-tu=1 / rdoq-level=2 / dynamic-rd=0.00 / no-ssim-rd / signhide / no-tskip / nr-intra=0 / nr-inter=0 / no-constrained-intra / no-strong-intra-smoothing / max-merge=4 / limit-refs=2 / limit-modes / me=3 / subme=7 / merange=57 / temporal-mvp / no-frame-dup / no-hme / weightp / weightb / no-analyze-src-pics / deblock=-3:-3 / no-sao / no-sao-non-deblock / rd=6 / selective-sao=0 / no-early-skip / no-rskip / no-fast-intra / no-tskip-fast / no-cu-lossless / no-b-intra / no-splitrd-skip / rdpenalty=0 / psy-rd=2.00 / psy-rdoq=1.00 / no-rd-refine / no-lossless / cbqpoffs=0 / crqpoffs=0 / rc=crf / crf=20.0 / qcomp=0.65 / qpstep=4 / stats-write=0 / stats-read=0 / vbv-maxrate=50000 / vbv-bufsize=50000 / vbv-init=0.9 / crf-max=0.0 / crf-min=0.0 / ipratio=1.40 / pbratio=1.30 / aq-mode=1 / aq-strength=1.00 / no-cutree / zone-count=0 / no-strict-cbr / qg-size=32 / no-rc-grain / qpmax=69 / qpmin=0 / no-const-vbv / sar=1 / overscan=0 / videoformat=5 / range=0 / colorprim=1 / transfer=1 / colormatrix=1 / chromaloc=0 / display-window=0 / cll=0,0 / min-luma=0 / max-luma=1023 / log2-max-poc-lsb=8 / vui-timing-info / vui-hrd-info / slices=1 / no-opt-qp-pps / no-opt-ref-list-length-pps / no-multi-pass-opt-rps / scenecut-bias=0.05 / hist-threshold=0.01 / no-opt-cu-delta-qp / no-aq-motion / no-hdr10 / no-hdr10-opt / no-dhdr10-opt / no-idr-recovery-sei / analysis-reuse-level=0 / analysis-save-reuse-level=0 / analysis-load-reuse-level=0 / scale-factor=0 / refine-intra=0 / refine-inter=0 / refine-mv=1 / refine-ctu-distortion=0 / no-limit-sao / ctu-info=0 / no-lowpass-dct / refine-analysis-type=0 / copy-pic=1 / max-ausize-factor=1.0 / no-dynamic-refine / no-single-sei / no-hevc-aq / no-svt / no-field / qp-adaptation-range=1.00 / no-scenecut-aware-qpconformance-window-offsets / right=0 / bottom=0
Default                                  : Yes
Forced                                   : No
Color range                              : Limited
Color primaries                          : BT.709
Transfer characteristics                 : BT.709
Matrix coefficients                      : BT.709

Audio #1
ID                                       : 2
Format                                   : AC-3
Format/Info                              : Audio Coding 3
Commercial name                          : Dolby Digital
Codec ID                                 : A_AC3
Duration                                 : 1 h 8 min
Bit rate mode                            : Constant
Bit rate                                 : 192 kb/s
Channel(s)                               : 2 channels
Channel layout                           : L R
Sampling rate                            : 48.0 kHz
Frame rate                               : 31.250 FPS (1536 SPF)
Compression mode                         : Lossy
Stream size                              : 93.5 MiB (3%)
Title                                    : / 2.0 Ch / 192 kbps / DUB / 1+1
Language                                 : Ukrainian
Service kind                             : Complete Main
Default                                  : Yes
Forced                                   : Yes

Audio #2
ID                                       : 3
Format                                   :
Format/Info                              : Digital Theater Systems
Codec ID                                 : A_DTS
Duration                                 : 1 h 8 min
Bit rate mode                            : Constant
Bit rate                                 : 1 509 kb/s
Channel(s)                               : 6 channels
Channel layout                           : C L R Ls Rs LFE
Sampling rate                            : 48.0 kHz
Frame rate                               : 93.750 FPS (512 SPF)
Bit depth                                : 24 bits
Compression mode                         : Lossy
Stream size                              : 736 MiB (22%)
Title                                    : / 5.1 Ch / 1509 kbps / Original
Language                                 : English
Default                                  : No
Forced                                   : No

Text #1
ID                                       : 4
Format                                   : UTF-8
Codec ID                                 : S_TEXT/UTF8
Codec ID/Info                            : UTF-8 Plain Text
Duration                                 : 59 min 28 s
Bit rate                                 : 76 b/s
Count of elements                        : 665
Stream size                              : 33.2 KiB (0%)
Title                                    : Full
Language                                 : Ukrainian
Default                                  : No
Forced                                   : No

Text #2
ID                                       : 5
Format                                   : UTF-8
Codec ID                                 : S_TEXT/UTF8
Codec ID/Info                            : UTF-8 Plain Text
Duration                                 : 59 min 41 s
Bit rate                                 : 55 b/s
Count of elements                        : 775
Stream size                              : 24.3 KiB (0%)
Title                                    : Full
Language                                 : English
Default                                  : No
Forced                                   : No

Text #3
ID                                       : 6
Format                                   : UTF-8
Codec ID                                 : S_TEXT/UTF8
Codec ID/Info                            : UTF-8 Plain Text
Duration                                 : 1 h 0 min
Bit rate                                 : 60 b/s
Count of elements                        : 902
Stream size                              : 26.8 KiB (0%)
Title                                    : SDH
Language                                 : English
Default                                  : No
Forced                                   : No

Menu
00:00:00.000                             : en:Analyzing Stitch
00:05:29.704                             : en:A New Competition
00:12:34.879                             : en:Family Fun Night
00:18:14.426                             : en:A Problem With 626
00:21:57.149                             : en:Inspiration From The King
00:27:41.618                             : en:Some Assembly Required
00:37:19.570                             : en:All Good Now?
00:41:01.500                             : en:Another Work Of Genius
00:45:05.244                             : en:A Little More Action
00:47:55.747                             : en:May Day!
00:55:28.325                             : en:Reunited
01:01:12.251                             : en:End Credits
Світлини




Джерело: &
Особиста оцінка: 10 - без зайвих вагань рекомендую всім!


Срібний реліз (на рейтинг впливає 50% завантаженого)
 Трекер:    Зареєстрований   

Завантажити / скачати мультфільм українською



відео для новачків



 Зареєстрований:   2020-08-28 14:20
 Розмір:   6.68 GB 
 Оцінка мультфільму:   10/10 (Голосів: 7)
   
olimpian1 
VIP


З нами з: 19.10.13
Востаннє: 24.02.21
Повідомлень: 293

2020-08-28 16:14  
Дякую велике за цей мультик! Мої дітлахи ще не бачили, тому є що дивитись на вихідні))
Anonymous 







2020-08-28 22:29  
olimpian1
Будь ласка)
Я і сам його обожнюю Happy

kukurudzasergiy 
Новенький


З нами з: 28.05.20
Востаннє: 24.02.21
Повідомлень: 12

2020-11-11 00:00  
Дякую
Dormidonts 
Новенький


З нами з: 31.07.16
Востаннє: 07.02.21
Повідомлень: 5

2021-01-18 19:46  
Різдвяні канікули продовжуються )
Ваш часовий пояс: GMT + 2 Години

Нова тема   Відповісти