Пляж / The Beach (2000) [Open Matte] 1080p Ukr/Eng | Sub Eng

Нові коментарі

Нова тема   Відповісти
Автор Повідомлення
Alukret 
Свій


З нами з: 11.06.14
Востаннє: 28.09.20
Повідомлень: 75

2020-08-26 23:52  
Пляж / The Beach (2000) [Open Matte] 1080p Ukr/Eng | Sub Eng

Пляж / The Beach (2000) [Open Matte] 1080p Ukr/Eng | Sub Eng


Жанр: трилер, пригодницький, драма, романтичний
Країна: США, Велика Британія



Кінокомпанія: Figment Films
Режисер: Денні Бойл / Danny Boyle
Актори: Леонардо ДіКапріо / Leonardo DiCaprio, Віржіні Ледуаєн / Virginie Ledoyen, Тільда ​​Свінтон / Tilda Swinton, Ґійом Кане / Guillaume Canet, Роберт Карлайл / Robert Carlyle, Патерсон Джозеф / Paterson Joseph, Пітер Янґблад Гіллз / Peter Youngblood Hills та інші

Сюжет:
Молодий американець Річард у пошуках пригод їде до Тайланду, де в дешевому готелі знайомиться з дивним чоловіком. Цей чоловік передає йому карту таємного острову, де "трава" росте як бур’ян, а на пляжі живе комуна. Це і є рай на Землі. Річард розповідає про карту парочці французів, і вони утрьох вирушають на пошуки острова...
Фільм знятий за однойменним романом-бестселером Алекса Ґарленда «Пляж» (The Beach, 1996).


Тривалість: 01:59:11
Якість:
Відео:
кодек:
розмір кадру: 1920 х 1080
бітрейт: 12900 кб/с

Аудіо # 1:
мова: українська
переклад: двоголосий закадровий
кодек: AC-3 2.0
бітрейт: 192 кб/с

Аудіо # 2:
мова: англійська
переклад: оригінал
кодек: E-AC-3 5.1
бітрейт: 640 кб/с

Субтитри (SDH):
мова: англійська
тип: програмні (м'які)
формат: *.srt
Info

Код:


General
Unique ID                                : 152347415532921448176375389458204038011 (0x729D0B8201909B4C7377A4C7F26D937B)
Complete name                            : Beach (2000) [Open Matte] 1080p [UKR_ENG] [Hurtom].
Format                                   :
Format version                           : Version 4
File size                                : 11.4 GiB
Duration                                 : 1 h 59 min
Overall bit rate mode                    : Variable
Overall bit rate                         : 13.7 Mb/s
Movie name                               : Beach (2000) [Open Matte] 1080p [UKR_ENG] [Hurtom]
Encoded date                             : UTC 2020-08-26 20:25:41
Writing application                      : v44.0.0 ('Domino') 64-bit
Writing library                          : libebml v1.3.10 + v1.5.2

Video
ID                                       : 1
Format                                   : AVC
Format/Info                              : Advanced Video Codec
Format profile                           : [email protected]
Format settings                          : CABAC / 4 Ref Frames
Format settings, CABAC                   : Yes
Format settings, Reference frames        : 4 frames
Codec ID                                 : V_MPEG4/ISO/AVC
Duration                                 : 1 h 59 min
Bit rate mode                            : Variable
Bit rate                                 : 12.9 Mb/s
Maximum bit rate                         : 15.0 Mb/s
Width                                    : 1 920 pixels
Height                                   : 1 080 pixels
Display aspect ratio                     : 16:9
Frame rate mode                          : Constant
Frame rate                               : 23.976 (24000/1001) FPS
Color space                              : YUV
Chroma subsampling                       : 4:2:0
Bit depth                                : 8 bits
Scan type                                : Progressive
Bits/(Pixel*Frame)                       : 0.259
Stream size                              : 10.7 GiB (94%)
Title                                    : 1080p / Amazon
Language                                 : English
Default                                  : Yes
Forced                                   : No
Color range                              : Limited
Color primaries                          : BT.709
Transfer characteristics                 : BT.709
Matrix coefficients                      : BT.709

Audio #1
ID                                       : 2
Format                                   : AC-3
Format/Info                              : Audio Coding 3
Commercial name                          : Dolby Digital
Codec ID                                 : A_AC3
Duration                                 : 1 h 59 min
Bit rate mode                            : Constant
Bit rate                                 : 192 kb/s
Channel(s)                               : 2 channels
Channel layout                           : L R
Sampling rate                            : 48.0 kHz
Frame rate                               : 31.250 FPS (1536 SPF)
Bit depth                                : 16 bits
Compression mode                         : Lossy
Stream size                              : 164 MiB (1%)
Title                                    : 2.0 / 192 Kbps / ICTV, Novyi Kanal, TET
Language                                 : Ukrainian
Service kind                             : Complete Main
Default                                  : Yes
Forced                                   : Yes

Audio #2
ID                                       : 3
Format                                   : E-AC-3
Format/Info                              : Enhanced AC-3
Commercial name                          : Dolby Digital Plus
Codec ID                                 : A_EAC3
Duration                                 : 1 h 59 min
Bit rate mode                            : Constant
Bit rate                                 : 640 kb/s
Channel(s)                               : 6 channels
Channel layout                           : L R C LFE Ls Rs
Sampling rate                            : 48.0 kHz
Frame rate                               : 31.250 FPS (1536 SPF)
Compression mode                         : Lossy
Stream size                              : 546 MiB (5%)
Title                                    : E- 5.1 / 640 kbps / Amazon
Language                                 : English
Service kind                             : Complete Main
Default                                  : No
Forced                                   : No

Text
ID                                       : 4
Format                                   : UTF-8
Codec ID                                 : S_TEXT/UTF8
Codec ID/Info                            : UTF-8 Plain Text
Duration                                 : 1 h 57 min
Bit rate                                 : 51 b/s
Count of elements                        : 1875
Stream size                              : 44.0 KiB (0%)
Title                                    : SDH / Amazon
Language                                 : English
Default                                  : No
Forced                                   : No

Порівняння кадрів Open Matte 16:9 (1.78:1) та Blu-Ray (2.39:1)



Скріншоти




Джерело: &
Особиста оцінка: 9 - давно не бачив настільки якісне кіно


Срібний реліз (на рейтинг впливає 50% завантаженого)
 Трекер:    Зареєстрований   

Завантажити / скачати фільм українською



відео для новачків



 Зареєстрований:   2020-08-26 23:53
 Розмір:   11.41 GB 
 Оцінка фільму:   9.5/10 (Голосів: 4)
   
Інші релізи
   Пляж / The Beach (2000) AVC [Open Matte] Ukr/Eng | Sub Eng DеLight  12 / 0   2.2 GB   2020-01-21 10:16 
   Пляж / The Beach (2000) AVC [Open Matte] Ukr/Eng | Sub Eng drop_plz  1 / 0   3.51 GB   2020-01-19 14:28 
   Пляж / The Beach (2000) 1080p Ukr/Eng | Sub Eng Pegass  6 / 0   8.35 GB   2018-05-29 02:08 
   Пляж / The Beach (2000) 720p Ukr/Eng | sub Eng staf777  3 / 0   8.73 GB   2018-05-24 19:07 
   На пляжі / On the Beach (2000) Ukr/Eng Lan  3 / 2   3.26 GB   2010-09-21 21:36 
   Пляж / The Beach (2000) Ukr/Eng SweetN  2 / 0   2.14 GB   2009-03-28 23:42 
Ваш часовий пояс: GMT + 2 Години

Нова тема   Відповісти