Формула 1. Сезон 1986. Етап 16. Гран-Прі Австралії. Гонка (26.10.1986) 720p

Нові коментарі

Нова тема   Відповісти
Останній раз роздавалося Nazzzik82 (2020-10-29)
Автор Повідомлення
sergiyko.5 
Забанено
Забанено


З нами з: 25.02.16
Востаннє: 29.10.20
Повідомлень: 3651

2020-08-26 17:05  
Формула 1. Сезон 1986. Етап 16. Гран-Прі Австралії. Гонка (26.10.1986) 720p


Формула 1. Сезон 1986. Етап 16. Гран-Прі Австралії. Гонка (26.10.1986) 720p

Жанр: Перегони Формули 1
Країна: Австралія
Телеканал: BBC Sport
Коментар: Максим Подзігун (коментар 2020 року)

Опис:
Гонка шістнадцятого етапу Гран-Прі Австралії 1986 року.


Якість:

Відео:кодек: розмір кадру: 992 х 712 бітрейт: 3400 кб/с
Аудіо: мова: українська кодек: 2.0 бітрейт: 192 кб/с
Тривалість:
01:59:01
Про файл:
General
Unique ID : 264907595779180544523109547330942997379 (0xC74B58DCE68C695341D893038C3F1383)
Complete name : D:\Documents\Torrents\SPORT\Formula 1\F1.1986.16.Australian.Race.Classics.2020.
Format :
Format version : Version 4
File size : 2.94 GiB
Duration : 1 h 59 min
Overall bit rate : 3 519 kb/s
Movie name : rip by sergiyko
Encoded date : UTC 2020-08-26 14:57:17
Writing application : v49.0.0 ('Sick Of Losing Soulmates') 64-bit
Writing library : libebml v1.4.0 + v1.6.1

Video
ID : 1
Format : AVC
Format/Info : Advanced Video Codec
Format profile : [email protected]
Format settings : CABAC / 6 Ref Frames
Format settings, CABAC : Yes
Format settings, Reference : 6 frames
Codec ID : V_MPEG4/ISO/AVC
Duration : 1 h 59 min
Bit rate : 3 391 kb/s
Width : 992 pixels
Height : 712 pixels
Display aspect ratio : 1.393
Frame rate mode : Constant
Frame rate : 25.000 FPS
Color space : YUV
Chroma subsampling : 4:2:0
Bit depth : 8 bits
Scan type : Progressive
Bits/(Pixel*Frame) : 0.192
Stream size : 2.83 GiB (96%)
Writing library : core 157 r2969 d4099dd
Encoding settings : cabac=1 / ref=6 / deblock=1:0:0 / analyse=0x3:0x133 / me=umh / subme=10 / psy=1 / psy_rd=1.00:0.00 / mixed_ref=1 / me_range=24 / chroma_me=1 / trellis=2 / 8x8dct=1 / cqm=0 / deadzone=21,11 / fast_pskip=1 / chroma_qp_offset=-2 / threads=22 / lookahead_threads=3 / sliced_threads=0 / nr=0 / decimate=1 / interlaced=0 / bluray_compat=0 / constrained_intra=0 / bframes=8 / b_pyramid=2 / b_adapt=2 / b_bias=0 / direct=3 / weightb=1 / open_gop=0 / weightp=2 / keyint=250 / keyint_min=25 / scenecut=40 / intra_refresh=0 / rc_lookahead=60 / rc=crf / mbtree=1 / crf=18.0 / qcomp=0.60 / qpmin=0 / qpmax=69 / qpstep=4 / ip_ratio=1.40 / aq=1:1.00
Language : English
Default : Yes
Forced : No

Audio
ID : 2
Format : LC
Format/Info : Advanced Audio Codec Low Complexity
Codec ID : A_AAC-2
Duration : 1 h 59 min
Bit rate : 126 kb/s
Channel(s) : 2 channels
Channel layout : L R
Sampling rate : 48.0 kHz
Frame rate : 46.875 FPS (1024 SPF)
Compression mode : Lossy
Stream size : 108 MiB (4%)
Title : Максим Подзігун
Language : Ukrainian
Default : Yes
Forced : No
Скріншоти:




Срібний реліз (на рейтинг впливає 50% завантаженого)
 Трекер:    Зареєстрований   

Завантажити / скачати торрент



відео для новачків



 Зареєстрований:   2020-08-26 17:05
 Розмір:   2.94 GB 
 Оцінка:   9.8/10 (Голосів: 9)
   
Ваш часовий пояс: GMT + 2 Години

Нова тема   Відповісти