Атака вірусів / Virus Attack (Сезон 1) (2011) 1080p Ukr/Ita/Eng

Нові коментарі

Нова тема   Відповісти
Останній раз роздавалося lubch (2021-03-16)
Автор Повідомлення
sergiyko.5 
Забанено
Забанено


З нами з: 25.02.16
Востаннє: 29.10.20
Повідомлень: 3648

2020-08-25 21:08  
Атака вірусів / Virus Attack (Сезон 1) (2011) 1080p Ukr/Ita/Eng


Атака вірусів / Virus Attack (Сезон 1) (2011) 1080p Ukr/Ita/Eng

Жанр: фантастика, бойовик
Країна: Італія
Кінокомпанія: Mondo TV
Режисер: Орландо Корраді

Сюжет:
Планета Земля на межі колапсу. Забруднення та нечистоти загрожують винищенням людства. Едвард Амальді, еклектичний всесвітньо відомий вчений, котрий вивчає явища, пов'язані з забрудненням навколишнього середовища, намагається підвищити обізнаність суспільства щодо неминучої катастрофи, проте, здавалося б, ніхто його не слухає.

Скориставшись хвилинною слабкістю, на Землю з метою помсти вторгаються армії вірусів з далекої галактики Амазія і готуються до епічного бою. Віруси, на чолі з чотирма генералами, закріпились у найбільш забруднених місцях планети та знищують усе на своєму шляху. Проте їм на заваді стають п'ятеро підлітків різних національностей: Девід, Аліса, Зурі, Родан і Джордж. Завдяки модифікованій ДНК, а також формулі, розробленій батьком Девіда, професором Амальді, тільки вони мають змогу протистояти величезній силі інопланетян. Після перетворення підлітки стають антивірусами, та за допомогою потужних здібностей вони здатні перемогти загарбників.




Тривалість: 1 серія: 13:20 (цілком серій: 52 з 52)
Якість:

Відео: кодек: розмір кадру: 1920 х 1080 бітрейт: 2600 кб/с
Аудіо 1: мова: українська озвучення: професійне дубльоване кодек: бітрейт: 192 кб/с
Озвучення:
Аудіо 2: мова: італійська озвучення: оригінальне кодек: бітрейт: 128 кб/с
Аудіо 3: мова: англійська озвучення: професійне дубльоване кодек: бітрейт: 128 кб/с
Перелік серій

01. The Day of the Revenge
02. The First Antivirus
03. The Power of Dyamer
04. Khalerya
05. Revelations
06. In Defense of the Earth
08. Arghes and Goldor
09. The Ship Mirage
10 Traps and Intrigues
11 Zobron
12 Jokes of the Nature
13 The Stars of the Desert
14 The First Kryptus
15 Fatal Consequences
16 A Hard Cohabitation
17 On the Road Again
18 Astra's Sacrifice
19 Rax
20 A Thousand Year Sequoia
21 Cold as Hate
22 Amaldie's Mysteries
23 Neos One
24 Dangerous Relations
25.A Blow to the Heart.Part 1
26.A Blow to the Heart.Part 2
27.A Blow to the Heart.Part 3
28.A Blow to the Heart.Part 4
29.The Trap for the Generals
30.Triumph and Defeat.Part 1
31.Triumph and Defeat.Part 2
32.Triumph and Defeat.Part 3
33.Triumph and Defeat.Part 4
34.The Power of the Tattoo
35.The Toughest Moment
36.General Astor
37.The Conversion Experiment.Part 1
38.The Conversion Experiment.Part 2
39.Double Cross
40.Heading Vaalbara.Part 1
41.Heading Vaalbara.Part 2
42.The Sorcerer's Totem
43.The Rayan Pagoda.Part 1
44.The Rayan Pagoda.Part 2
45.The Swamp
46.Captain Shankar's Vessel
47.The Conspiracy
48.The Araldo
49.An Unexpected Comeback
50.Into the Viruses Lair
51.The Final Fight.Part 1
52.The Final Fight.Part 2
Про файл:
General
Unique ID : 216017630271928138329157228830419000947 (0xA2837B75C29AF8C042766DDAA3571E73)
Complete name : C:\Users\Sergij\Pictures\Virus Attack S01 1080p \S01E01.The Day of the Revenge.1080p..
Format :
Format version : Version 4
File size : 244 MiB
Duration : 13 min 20 s
Overall bit rate : 2 553 kb/s
Movie name : Virus Attack S01 rip by sergiyko
Encoded date : UTC 2020-08-25 15:42:36
Writing application : v49.0.0 ('Sick Of Losing Soulmates') 64-bit
Writing library : libebml v1.4.0 + v1.6.1

Video
ID : 1
Format : AVC
Format/Info : Advanced Video Codec
Format profile : [email protected]
Format settings : CABAC / 3 Ref Frames
Format settings, CABAC : Yes
Format settings, Reference : 3 frames
Codec ID : V_MPEG4/ISO/AVC
Duration : 13 min 20 s
Bit rate : 2 231 kb/s
Width : 1 920 pixels
Height : 1 080 pixels
Display aspect ratio : 16:9
Frame rate mode : Constant
Frame rate : 25.000 FPS
Color space : YUV
Chroma subsampling : 4:2:0
Bit depth : 8 bits
Scan type : Progressive
Bits/(Pixel*Frame) : 0.043
Stream size : 213 MiB (87%)
Title : S01E01.The Day of the Revenge
Writing library : core 155 r2901 7d0ff22
Language : Italian
Default : Yes
Forced : No
Color range : Limited
Color primaries : BT.709
Transfer characteristics : BT.709
Matrix coefficients : BT.709

Audio #1
ID : 2
Format : AC-3
Format/Info : Audio Coding 3
Commercial name : Dolby Digital
Codec ID : A_AC3
Duration : 13 min 20 s
Bit rate mode : Constant
Bit rate : 192 kb/s
Channel(s) : 2 channels
Channel layout : L R
Sampling rate : 48.0 kHz
Frame rate : 31.250 FPS (1536 SPF)
Compression mode : Lossy
Stream size : 18.3 MiB (8%)
Title : DUB DualMono | Малятко ТБ
Language : Ukrainian
Service kind : Complete Main
Default : Yes
Forced : Yes

Audio #2
ID : 3
Format : LC
Format/Info : Advanced Audio Codec Low Complexity
Codec ID : A_AAC-2
Duration : 13 min 20 s
Bit rate : 128 kb/s
Channel(s) : 2 channels
Channel layout : L R
Sampling rate : 44.1 kHz
Frame rate : 43.066 FPS (1024 SPF)
Compression mode : Lossy
Stream size : 12.2 MiB (5%)
Title : DUB
Language : English
Default : No
Forced : No
Скріншоти:


Запис/зведення: sergiyko


Бронзовий реліз (на рейтинг впливає 75% завантаженого)
 Трекер:    Зареєстрований   

Завантажити / скачати мультфільм українською



відео для новачків



 Зареєстрований:   2020-10-01 12:19
 Розмір:   15.59 GB 
 Оцінка мультсеріалу:   10/10 (Голосів: 2)
   
sergiyko.5 
Забанено
Забанено


З нами з: 25.02.16
Востаннє: 29.10.20
Повідомлень: 3648

2020-08-26 12:40  
Торент оновлено. Додав 3-25, 29-52 серії.
sergiyko.5 
Забанено
Забанено


З нами з: 25.02.16
Востаннє: 29.10.20
Повідомлень: 3648

2020-10-01 12:20  
Додав 26-28 серії. Сезон повний. Приємного перегляду!
Ваш часовий пояс: GMT + 2 Години

Нова тема   Відповісти