Норм та нестримні. Велика пригода / Norm of the North King Sized Adventure (2019) AVC

Нові коментарі

Нова тема   Відповісти
Автор Повідомлення
Arsenfpu 
Відео Гуртом - фільмокрай
Відео Гуртом - фільмокрай


З нами з: 30.04.09
Востаннє: 25.10.20
Повідомлень: 7336

2020-08-24 14:50  
Норм та нестримні. Велика пригода / Norm of the North King Sized Adventure (2019) AVC

Норм та нестримні. Велика пригода / Norm of the North King Sized Adventure (2019) AVC


Жанр: анімація, пригоди
Країна: США, Індія, Південна Корея, Китай



Кінокомпанія: Assemblage, Dream Factory Group, Splash Entertainment
Режисер: Річард Фінн, Тім Молтбі
Ролі озвучують: Ліза Дурупт, Вінсент Тонг, Джонатан Холмс, Лі Токар, Майкл Добсон ...

Сюжет:
Покровитель Арктики, миролюбний білий ведмідь Норм виручає в скрутну хвилину археолога-авантюриста Джина, якого зрадив його ж напарник. Він викрав у Джина цінний китайський артефакт, який веде до тайника зі скарбами. Разом з маленькими друзями-лемінгами Норм відправляється в невідому раніше подорож, щоб повернути вкрадену реліквію.


Тривалість: 01:30:05
Якість:
Відео:
кодек:
розмір кадру: 1 024 х 576
бітрейт: 1 999 кб/с

Аудіо:
мова: українська
переклад: професійний дубльований
кодек: 2.0
бітрейт: 192 кб/с
Скріншоти














Про файл
General
Unique ID : 197623719614211995660570462808504057243 (0x94ACF1A59173AB2B11CCC3A29B24BD9B)
Complete name : C:\Norm of the North King Sized Adventure (2019) AVC [Hurtom].
Format :
Format version : Version 4 / Version 2
File size : 1.38 GiB
Duration : 1 h 30 min
Overall bit rate : 2 193 kb/s
Movie name : Норм та нестримні. Велика пригода / Norm of the North King Sized Adventure (2019)
Encoded date : UTC 2020-08-24 11:29:11
Writing application : v21.0.0 ('Tardigrades Will Inherit The Earth') 32-bit
Writing library : libebml v1.3.5 + v1.4.8
Cover : Yes
Attachments : cover.jpg

Video
ID : 1
Format : AVC
Format/Info : Advanced Video Codec
Format profile : [email protected]
Format settings, CABAC : Yes
Format settings, ReFrames : 4 frames
Codec ID : V_MPEG4/ISO/AVC
Duration : 1 h 30 min
Bit rate : 1 999 kb/s
Width : 1 024 pixels
Height : 576 pixels
Display aspect ratio : 16:9
Frame rate mode : Constant
Frame rate : 23.976 (24000/1001) FPS
Color space : YUV
Chroma subsampling : 4:2:0
Bit depth : 8 bits
Scan type : Progressive
Bits/(Pixel*Frame) : 0.141
Stream size : 1.26 GiB (91%)
Writing library : core 157 r2935 545de2f
Encoding settings : cabac=1 / ref=3 / deblock=1:-1:-1 / analyse=0x3:0x113 / me=hex / subme=7 / psy=1 / psy_rd=1.00:0.15 / mixed_ref=1 / me_range=16 / chroma_me=1 / trellis=1 / 8x8dct=1 / cqm=0 / deadzone=21,11 / fast_pskip=1 / chroma_qp_offset=-3 / threads=12 / lookahead_threads=2 / sliced_threads=0 / nr=0 / decimate=1 / interlaced=0 / bluray_compat=0 / constrained_intra=0 / bframes=3 / b_pyramid=2 / b_adapt=1 / b_bias=0 / direct=1 / weightb=1 / open_gop=0 / weightp=2 / keyint=240 / keyint_min=23 / scenecut=40 / intra_refresh=0 / rc_lookahead=40 / rc=2pass / mbtree=1 / bitrate=1999 / ratetol=1.0 / qcomp=0.60 / qpmin=0 / qpmax=69 / qpstep=4 / cplxblur=20.0 / qblur=0.5 / ip_ratio=1.40 / aq=1:1.00
Default : Yes
Forced : No

Audio
ID : 2
Format : AC-3
Format/Info : Audio Coding 3
Mode extension : CM (complete main)
Format settings, Endianness : Big
Codec ID : A_AC3
Duration : 1 h 30 min
Bit rate mode : Constant
Bit rate : 192 kb/s
Channel(s) : 2 channels
Channel positions : Front: L R
Sampling rate : 48.0 kHz
Frame rate : 31.250 FPS (1536 spf)
Compression mode : Lossy
Delay relative to video : 22 ms
Stream size : 124 MiB (9%)
Title : ТЕТ
Language : Ukrainian
Default : Yes
Forced : No
Джерело:
За матеріал для релізу дякую п. sergiyko, xslim
Особиста оцінка: не дивився


 Трекер:    Зареєстрований   

Завантажити / скачати мультфільм українською



відео для новачків



 Зареєстрований:   2020-08-24 14:50
 Розмір:   1.38 GB 
 Оцінка мультфільму:   8.9/10 (Голосів: 8)
   
-_-B_Е_N_D_E_R-_- 
Попереджень: 2
Попереджень: 2 


З нами з: 04.03.20
Востаннє: 25.10.20
Повідомлень: 715

2020-08-24 16:24  
Arsenfpu
Я ж писав що від мене буде avc

Arsenfpu 
Відео Гуртом - фільмокрай
Відео Гуртом - фільмокрай


З нами з: 30.04.09
Востаннє: 25.10.20
Повідомлень: 7336

2020-08-24 17:01  
Чесно, не бачив. А де?
-_-B_Е_N_D_E_R-_- 
Попереджень: 2
Попереджень: 2 


З нами з: 04.03.20
Востаннє: 25.10.20
Повідомлень: 715

2020-08-24 17:14  
Arsenfpu 
Відео Гуртом - фільмокрай
Відео Гуртом - фільмокрай


З нами з: 30.04.09
Востаннє: 25.10.20
Повідомлень: 7336

2020-08-24 17:31  
Зрозуміло. Все не відслідкуєш та й тема не про релізи. Можу зараз лиш сказати "вибачте", що втрутився у плани.
Ваш часовий пояс: GMT + 2 Години

Нова тема   Відповісти