Рутенія. Повернення Коду Нації (2020) HDTV 1080i

Нові коментарі

Нова тема   Відповісти
Автор Повідомлення
sergiyko.5 
VIP


З нами з: 25.02.16
Востаннє: 24.10.20
Повідомлень: 3615

2020-08-23 19:56  
Рутенія. Повернення Коду Нації (2020) HDTV 1080i


Рутенія. Повернення Коду Нації (2020) HDTV 1080i

Жанр: історичний
Країна: Україна
Режисер: Антоніна Готфрід

Сюжет:
Картина розповість про шрифт, символіку й українську візуальну ідентичність. У проєкті використано матеріали та результати багаторічних досліджень кандидата історичних наук Олександра Босого, авторський доробок каліграфа й художник-графіка Василя Чебаника та матеріали проєкту Дмитра Лісенбарта “Графіка української мови”.


Тривалість: 01:00:03
Якість: HDTV

Відео: кодек: розмір кадру: 1920 х 1080 бітрейт: 4090 кб/с
Аудіо: мова: українська переклад: оригінал кодек: MP2 2.0 бітрейт: 192 кб/с
Про файл:
General
Unique ID : 189204034498374647095990089127308954509 (0x8E575F1ED04DB88A9D00EA1A93B60B8D)
Complete name : D:\Documents\Torrents\FILMS\Рутенія.Повернення Коду Нації.1080i.HDTV.
Format :
Format version : Version 4
File size : 1.83 GiB
Duration : 1 h 0 min
Overall bit rate : 4 370 kb/s
Writing application : VideoReDo (Lavf56.25.101)
Writing library : VideoReDo (Lavf56.25.101)

Video
ID : 1
Format : AVC
Format/Info : Advanced Video Codec
Format profile : [email protected]
Format settings : CABAC / 4 Ref Frames
Format settings, CABAC : Yes
Format settings, Reference : 4 frames
Codec ID : V_MPEG4/ISO/AVC
Duration : 1 h 0 min
Bit rate : 4 091 kb/s
Width : 1 920 pixels
Height : 1 080 pixels
Display aspect ratio : 16:9
Frame rate mode : Constant
Frame rate : 25.000 FPS
Standard : Component
Color space : YUV
Chroma subsampling : 4:2:0
Bit depth : 8 bits
Scan type : Interlaced
Scan type, store method : Separated fields
Scan order : Top Field First
Bits/(Pixel*Frame) : 0.079
Stream size : 1.72 GiB (94%)
Default : No
Forced : No
Color range : Limited
Color primaries : BT.709
Transfer characteristics : BT.709
Matrix coefficients : BT.709
Duration_Source : General_Duration

Audio
ID : 2
Format : MPEG Audio
Format version : Version 1
Format profile : Layer 2
Codec ID : A_MPEG/L2
Codec ID/Hint : MP2
Duration : 1 h 0 min
Bit rate mode : Constant
Bit rate : 192 kb/s
Channel(s) : 2 channels
Sampling rate : 48.0 kHz
Compression mode : Lossy
Stream size : 82.5 MiB (4%)
Language : Ukrainian
Default : Yes
Forced : No
Duration_Source : General_Duration
Скріншоти:


Запис: sergiyko


Золотий реліз (завантажене не впливає на рейтинг)
 Трекер:    Зареєстрований   

Завантажити / скачати фільм українською



відео для новачків



 Зареєстрований:   2020-08-23 19:56
 Розмір:   1.83 GB 
 Оцінка фільму:   9.4/10 (Голосів: 16)
   
Nympha_Blin 
Новенький


З нами з: 28.12.12
Востаннє: 24.08.20
Повідомлень: 1

2020-08-23 21:14  
дякую
besconst 
Свій


З нами з: 10.03.12
Востаннє: 23.10.20
Повідомлень: 58

2020-08-23 22:04  
якась маячня в стилі Бебика
-FIRE- 
Частий відвідувач


З нами з: 02.08.11
Востаннє: 24.10.20
Повідомлень: 30

2020-08-24 15:03  
Вдячний за реліз!
Shukachvitru 
Свій


З нами з: 06.04.17
Востаннє: 08.10.20
Повідомлень: 51

2020-09-22 17:45  
Нація Повинна себе Пізнавати , Возвеличивувати себе
а не Жити по "підручникам" НедоІсториків - чужинців

(2009 р)

Худоба.

(Поема)
I
Як завше
ми зігнули спини
Абись вилазили
пани

Чиї то?
Хай, байдуже
Або Московії
чи Янкі

Які ж то ми
то є без них
ніхто без пана
ми на плечах.

Бо сь то
не маєм голови
Тому й стаємо
на коліна

Щоб легше
було тим панам
на спинах
у «коней сидіти».

І холуї – іуди
нас покірних
за ті вуздечка
кольорові

До сих хазяїв
приведуть.

А щоби менше
ми гуділи
й не так свобідними
були

Пани нам любі
із уздою
той кляп «трьохцвєтний»
рот закриють.

Іуди наші
нас помиють
помиями
із унітазу
сусідів наших
«нужників».

І так щасливі
тому бруду
немов священнїїй
воді.

нам кажуть :
- Бидло ви!
- Ми бидло.

Не годимося
ми в Пани

Бо так воняємо,
й «хлівами»
замісто розуму і
духу
ми як гниллями
обросли.

Так хто ж то
прийме
тебе рабе
хоча й вчорашній
в Хазяї?

Ваш часовий пояс: GMT + 2 Години

Нова тема   Відповісти