Амфібія / Amphibia (Сезон 1) (2019) 1080p Ukr/Eng | sub Eng

Нові коментарі

Нова тема   Відповісти
Автор Повідомлення
sergiyko.5 
Забанено
Забанено


З нами з: 25.02.16
Востаннє: 29.10.20
Повідомлень: 3648

2020-08-22 10:55  
Амфібія / Amphibia (Сезон 1) (2019) 1080p Ukr/Eng | sub Eng

Амфібія / Amphibia (Сезон 1) (2019) 1080p Ukr/Eng | sub Eng

Жанр: комедія, пригодницький, сімейний, фентезі
Країна: США
Кінокомпанія: Disney Channel
Режисер: Кім Роберсон, Дерек Кірк Кім, Берт Юн
Актори: Бренда Сонг, Джастін Фелбінгер, Біл Фармер, Аманда Лейтон, Джеймс Патрік Стюарт та інші.

Сюжет:
Сюжет мультсеріалу розповідає про пригоди егоїстичної тринадцятирічної дівчинки на ім'я Енн Бунчуй. Після крадіжки таємничої скриньки, вона чарівним чином переноситься в амфібію - дике місце, населене жабами, які розмовляють.

Скоро наша героїня зустрічає молодого жабеня на ім'я Брунько Квітник. Дівчинка і жабеня стають хорошими друзями. Брунько буде провідником для Енн в цьому дивному для неї світі. А, ставши справжніми друзями, вони будуть готові пройти через будь-які перешкоди, труднощі і пастки, які будуть чекати їх на кожному кроці.




Тривалість: 1 серія: 12:02 (цілком серій: 40 з 40)
Якість:

Відео: кодек: розмір кадру: 1920 х 1080 бітрейт: 5172 кб/с
Аудіо 1: мова: українська озвучення: професійне дубльоване кодек: 2.0 бітрейт: 192 кб/с
Озвучення:
Аудіо 2: мова: англійська озвучення: оригінал кодек: + 2.0 бітрейт: 224 кб/с
Субтитри: мова: англійська тип: програмні (м'які) формат: *.srt

Примітка: звук з запису телеканалу у стандарті DVB-T2
Перелік серій
01 Anne or Beast?
02 Best Fronds
03 Cane Crazy
04 Flood, Sweat and Tears
05 Hop Luck
06 Stakeout
07 The Domino Effect
08 Taking Charge
09 Anne Theft Auto
10 Breakout Star
11 Sprig Vs. Hop Pop
12 Girl Time
13 Dating Season
14 Anne Vs. Wild
15 Contangi-Anne
16 Family Shrub
17 Lily Pad Thai
18 Plantar’s Last Stand
19 Toad Tax 20 Prison Break
21 Grubhog Day
22 Hop Pop and Lock
23 Civil Wart
24 Hop-Popular
25 Croak and Punishment
26 Trip to the Archives
27 Snow Day
28 Cracking Mrs. Croaker
29 A Night at The Inn
30 Wally and Anne
31 Family Fishing Trip
32 Bizarre Bazaar
33 Cursed!
34 Fiddle Me This
35 The Big Bugball Game
36 Combat Camp
37 Children of the Spore
38 Anne of The Year
39-40 Reunion
Про файл:
General
Unique ID : 218645916037546164498086614649667397158 (0xA47DABF3F8DB4B3CA5B12D6CCACD2626)
Complete name : D:\Documents\Torrents\FILMS\Amphibia S01 1080p\S01E01.Anne or Beast.1080p..
Format :
Format version : Version 4
File size : 481 MiB
Duration : 12 min 2 s
Overall bit rate : 5 589 kb/s
Movie name : Amphibia S01 1080p by sergiyko
Encoded date : UTC 2020-08-22 07:41:43
Writing application : v47.0.0 ('Black Flag') 64-bit
Writing library : libebml v1.3.10 + v1.5.2

Video
ID : 1
Format : AVC
Format/Info : Advanced Video Codec
Format profile : [email protected]
Format settings : CABAC / 4 Ref Frames
Format settings, CABAC : Yes
Format settings, Reference : 4 frames
Codec ID : V_MPEG4/ISO/AVC
Duration : 12 min 2 s
Bit rate mode : Constant
Bit rate : 5 172 kb/s
Nominal bit rate : 10 000 kb/s
Width : 1 920 pixels
Height : 1 080 pixels
Display aspect ratio : 16:9
Frame rate mode : Constant
Frame rate : 23.976 (24000/1001) FPS
Color space : YUV
Chroma subsampling : 4:2:0
Bit depth : 8 bits
Scan type : Progressive
Bits/(Pixel*Frame) : 0.104
Stream size : 445 MiB (93%)
Title : S01E01.Anne or Beast
Language : English
Default : Yes
Forced : No
Color range : Limited
Color primaries : BT.709
Transfer characteristics : BT.709
Matrix coefficients : BT.709

Audio #1
ID : 2
Format : AC-3
Format/Info : Audio Coding 3
Commercial name : Dolby Digital
Codec ID : A_AC3
Duration : 12 min 2 s
Bit rate mode : Constant
Bit rate : 192 kb/s
Channel(s) : 2 channels
Channel layout : L R
Sampling rate : 48.0 kHz
Frame rate : 31.250 FPS (1536 SPF)
Compression mode : Lossy
Stream size : 16.5 MiB (3%)
Title : DUB 2ch | ПлюсПлюс
Language : Ukrainian
Service kind : Complete Main
Default : Yes
Forced : Yes

Audio #2
ID : 3
Format : E-AC-3
Format/Info : Enhanced AC-3
Commercial name : Dolby Digital Plus
Codec ID : A_EAC3
Duration : 12 min 2 s
Bit rate mode : Constant
Bit rate : 224 kb/s
Channel(s) : 2 channels
Channel layout : L R
Sampling rate : 48.0 kHz
Frame rate : 31.250 FPS (1536 SPF)
Compression mode : Lossy
Delay relative to video : 167 ms
Stream size : 19.3 MiB (4%)
Title : Original
Language : English
Service kind : Complete Main
Default : No
Forced : No

Text
ID : 4
Format : UTF-8
Codec ID : S_TEXT/UTF8
Codec ID/Info : UTF-8 Plain Text
Duration : 11 min 29 s
Bit rate : 79 b/s
Count of elements : 231
Stream size : 6.66 KiB (0%)
Language : English
Default : No
Forced : No
Скріншоти:


Запис/синхронізація: sergiyko


Бронзовий реліз (на рейтинг впливає 75% завантаженого)
 Трекер:    Зареєстрований   

Завантажити / скачати мультфільм українською



відео для новачків



 Зареєстрований:   2020-09-10 22:21
 Розмір:   19.05 GB 
 Оцінка мультсеріалу:   10/10 (Голосів: 9)
   
tilda4334 
Відео Гуртом - фільмокрай
Відео Гуртом - фільмокрай


З нами з: 15.08.14
Востаннє: 22.04.21
Повідомлень: 1545

2020-08-22 11:53  
Може варто було б додати і озвучення від сімпсонівюа?
sergiyko.5 
Забанено
Забанено


З нами з: 25.02.16
Востаннє: 29.10.20
Повідомлень: 3648

2020-08-30 10:48  
Додав 5-20 епізоди.
sergiyko.5 
Забанено
Забанено


З нами з: 25.02.16
Востаннє: 29.10.20
Повідомлень: 3648

2020-09-10 22:22  
Додав 21-40 серії. Сезон повний. Приємного перегляду!
І-р 
Свій


З нами з: 21.07.16
Востаннє: 22.04.21
Повідомлень: 147

2020-09-12 22:07  
Цитата:
Додав 21-40 серії.

У списку файлів останньою є 38-а.

sergiyko.5 
Забанено
Забанено


З нами з: 25.02.16
Востаннє: 29.10.20
Повідомлень: 3648

2020-09-12 22:16  
Файлів 38, а серій 40. Будьте уважні.
Ваш часовий пояс: GMT + 2 Години

Нова тема   Відповісти