Гавань / Haven (2004) 720p Ukr/Eng | Sub Eng

Нові коментарі

Нова тема   Відповісти
Автор Повідомлення
Anonymous 







2020-08-22 09:10  
Гавань / Haven (2004) 720p Ukr/Eng | Sub Eng

Гавань / Haven (2004) 720p Ukr/Eng | Sub Eng


Жанр: драма, кримінальний
Країна: США, Велика Британія, Німеччина, Іспанія



Кінокомпанія: Camino Pictures, Bob Yari Productions, Whatever Pictures
Режисер: Френк І. Флаверс
Актори: Орландо Блум, Білл Пакстон, Стівен Діллейн, Агнес Брукнер, Зої Салдана та інші

Сюжет:
Картина поєднує дві сюжетні лінії, причому не завжди у хронологічному порядку. Одна з них – втеча бізнесмена (Пакстон) на Кайманові острови, де він розраховує сховатись від податківців. Друга – роман між хлопцем на ім’я Шай (Блум) і дочкою темношкірого авторитета, який не закінчується нічим хорошим... Типовий кримінал з екзотичним антуражем і нехитрою мораллю починається непогано, але загалом не піднімається вище пересічного рівня і доводить, що самого Блума замало для повноцінного хіта.


Тривалість: 01:38:48
Якість: 720p
Відео:
кодек:
розмір кадру: 1280х694
бітрейт: 7778 кб/с

Аудіо # 1:
мова: українська
переклад: багатоголосий закадровий
кодек: 2.0
бітрейт: 192 кб/с

Аудіо # 2:
мова: англійська
переклад: оригінал
кодек: 5.1
бітрейт: 384 кб/с

Субтитри:
мова: англійська
тип: програмні (м'які)
формат: *.srt
Info
General
Unique ID : 184263358643134922133363519780423292405 (0x8A9FD4FE5F62923F9E9B2F02B62955F5)
Complete name : F:\Toloka\2020\Haven (2004) 720p.
Format :
Format version : Version 4
File size : 5.88 GiB
Duration : 1 h 38 min
Overall bit rate : 8 523 kb/s
Encoded date : UTC 2020-08-22 06:05:51
Writing application : v6.1.0 ('Old Devil') built on Mar 4 2013 09:10:42
Writing library : libebml v1.3.0 + v1.4.0

Video
ID : 1
Format : AVC
Format/Info : Advanced Video Codec
Format profile : [email protected]
Format settings : CABAC / 8 Ref Frames
Format settings, CABAC : Yes
Format settings, Reference : 8 frames
Codec ID : V_MPEG4/ISO/AVC
Duration : 1 h 38 min
Bit rate : 7 778 kb/s
Width : 1 280 pixels
Height : 694 pixels
Display aspect ratio : 1.85:1
Frame rate mode : Constant
Frame rate : 23.976 (24000/1001) FPS
Color space : YUV
Chroma subsampling : 4:2:0
Bit depth : 8 bits
Scan type : Progressive
Bits/(Pixel*Frame) : 0.365
Stream size : 5.37 GiB (91%)
Writing library : core 161 r3018 db0d417
Encoding settings : cabac=1 / ref=8 / deblock=1:-3:-3 / analyse=0x3:0x133 / me=umh / subme=9 / psy=1 / psy_rd=1.10:0.00 / mixed_ref=1 / me_range=24 / chroma_me=1 / trellis=2 / 8x8dct=1 / cqm=0 / deadzone=21,11 / fast_pskip=0 / chroma_qp_offset=-2 / threads=22 / lookahead_threads=1 / sliced_threads=0 / nr=0 / decimate=0 / interlaced=0 / bluray_compat=0 / constrained_intra=0 / bframes=3 / b_pyramid=2 / b_adapt=2 / b_bias=0 / direct=3 / weightb=1 / open_gop=0 / weightp=2 / keyint=250 / keyint_min=23 / scenecut=40 / intra_refresh=0 / rc_lookahead=60 / rc=crf / mbtree=1 / crf=18.4 / qcomp=0.60 / qpmin=0 / qpmax=69 / qpstep=4 / ip_ratio=1.40 / aq=3:0.70
Default : Yes
Forced : No
Color range : Limited
Matrix coefficients : BT.709
Statistics Tags Issue : v47.0.0 ('Black Flag') 64-bit / v6.1.0 ('Old Devil') built on Mar 4 2013 09:10:42 2020-08-22 06:05:51
FromStats_BitRate : 7920844
FromStats_Duration : 01:38:48.465000000
FromStats_FrameCount : 142141
FromStats_StreamSize : 5869806416

Audio #1
ID : 2
Format : AC-3
Format/Info : Audio Coding 3
Commercial name : Dolby Digital
Codec ID : A_AC3
Duration : 1 h 38 min
Bit rate mode : Constant
Bit rate : 192 kb/s
Channel(s) : 2 channels
Channel layout : L R
Sampling rate : 48.0 kHz
Frame rate : 31.250 FPS (1536 SPF)
Compression mode : Lossy
Stream size : 136 MiB (2%)
Title : UKR (K1)
Language : Ukrainian
Service kind : Complete Main
Default : Yes
Forced : Yes

Audio #2
ID : 3
Format : AC-3
Format/Info : Audio Coding 3
Commercial name : Dolby Digital
Codec ID : A_AC3
Duration : 1 h 38 min
Bit rate mode : Constant
Bit rate : 384 kb/s
Channel(s) : 6 channels
Channel layout : L R C LFE Ls Rs
Sampling rate : 48.0 kHz
Frame rate : 31.250 FPS (1536 SPF)
Compression mode : Lossy
Stream size : 271 MiB (5%)
Title : ENG
Language : English
Service kind : Complete Main
Default : No
Forced : No
Statistics Tags Issue : v47.0.0 ('Black Flag') 64-bit / v6.1.0 ('Old Devil') built on Mar 4 2013 09:10:42 2020-08-22 06:05:51
FromStats_BitRate : 384000
FromStats_Duration : 01:38:48.448000000
FromStats_FrameCount : 185264
FromStats_StreamSize : 284565504

Text #1
ID : 4
Format : UTF-8
Codec ID : S_TEXT/UTF8
Codec ID/Info : UTF-8 Plain Text
Title : Stripped SRT
Language : English
Default : No
Forced : No
Statistics Tags Issue : v47.0.0 ('Black Flag') 64-bit / v6.1.0 ('Old Devil') built on Mar 4 2013 09:10:42 2020-08-22 06:05:51
FromStats_BitRate : 59
FromStats_Duration : 01:37:37.686000000
FromStats_FrameCount : 1386
FromStats_StreamSize : 43831

Text #2
ID : 5
Format : UTF-8
Codec ID : S_TEXT/UTF8
Codec ID/Info : UTF-8 Plain Text
Title : SDH SRT
Language : English
Default : No
Forced : No
Statistics Tags Issue : v47.0.0 ('Black Flag') 64-bit / v6.1.0 ('Old Devil') built on Mar 4 2013 09:10:42 2020-08-22 06:05:51
FromStats_BitRate : 61
FromStats_Duration : 01:38:17.851000000
FromStats_FrameCount : 1425
FromStats_StreamSize : 45201

Text #3
ID : 6
Format : PGS
Codec ID : S_HDMV/PGS
Codec ID/Info : Picture based subtitle format used on BDs/HD-DVDs
Title : English SDH
Language : English
Default : No
Forced : No
Statistics Tags Issue : v47.0.0 ('Black Flag') 64-bit / v6.1.0 ('Old Devil') built on Mar 4 2013 09:10:42 2020-08-22 06:05:51
FromStats_BitRate : 24202
FromStats_Duration : 01:38:36.327000000
FromStats_FrameCount : 2851
FromStats_StreamSize : 17898787

Menu
00:00:00.000 : en:Chapter 01
00:07:59.896 : en:Chapter 02
00:16:56.224 : en:Chapter 03
00:23:56.685 : en:Chapter 04
00:38:16.544 : en:Chapter 05
00:44:34.505 : en:Chapter 06
00:53:21.740 : en:Chapter 07
01:05:32.971 : en:Chapter 08
01:11:39.170 : en:Chapter 09
01:20:52.765 : en:Chapter 10
01:27:08.932 : en:Chapter 11
01:31:27.857 : en:Chapter 12
Скріншоти








За доріжку подяка п.: xslim, Gingеrbread
За постер подяка п. realnitro

Джерело:


Срібний реліз (на рейтинг впливає 50% завантаженого)
 Трекер:    Зареєстрований   

Завантажити / скачати фільм українською



відео для новачків



 Зареєстрований:   2020-08-22 09:10
 Розмір:   5.88 GB 
 Оцінка фільму:   10/10 (Голосів: 2)
   
Інші релізи
   Гавань / Haven (2004) AVC Ukr/Eng | Sub Eng Gingеrbread  3 / 0   2.16 GB   2020-02-15 22:53 
   Гавань / Haven (2004) Anonymous  1 / 0   1.28 GB   2009-05-27 23:11 
lunatiq 
Частий відвідувач


З нами з: 01.02.16
Востаннє: 17.09.20
Повідомлень: 36

2020-08-22 22:37  
в Сюжеті і сюжет, і спойлер, і критика ))))
Ваш часовий пояс: GMT + 2 Години

Нова тема   Відповісти