Соловей співає (2019) HDTV 1080i

Нові коментарі

Нова тема   Відповісти
Автор Повідомлення
sergiyko.5 
Забанено
Забанено


З нами з: 25.02.16
Востаннє: 29.10.20
Повідомлень: 3651

2020-08-20 15:06  
Соловей співає (2019) HDTV 1080i


Соловей співає (2019) HDTV 1080i

Жанр: документальний
Країна: Україна
Телеканал / кіностудія:
Режисер: Сергій Кримський

Сюжет: Документальний фільм «Соловей співає» є дослідженням проблеми мовного питання в Україні. Автори аналізують мовну ситуацію не в звичайній, поширеній формі протистояння політичних сил, а досліджують значно глибші причини та наслідки нинішньої конфронтації довкола української мови. Автори фільму намагаються знайти відповідь на запитання: «Чому спілкуватися в Україні 21 століття українською мовою для багатьох громадян є нонсенсом, чому ці громадяни відчувають відторгення та спротив?». Щоб відповісти на це запитання, творці занурюються вглиб історії та досліджують, об’єктивно руйнують міфи, які століттями насаджувалися як єдина істина щодо меж, сфер, носіїв української.

Тривалість: 01:05:49
Якість: HDTV

Відео: кодек: розмір кадру: 1920 х 1080 бітрейт: 3900 кб/с
Аудіо: мова: українська озвучення: оригінал кодек: MP2 2.0 бітрейт: 192 кб/с
Про файл:
General
Unique ID : 254994178869030892135685759369779133527 (0xBFD617AC4CA5476FC7D632E15650BC57)
Complete name : D:\Documents\Torrents\FILMS\Соловей співає.2019.1080i.HDTV.
Format :
Format version : Version 4
File size : 2.01 GiB
Duration : 1 h 5 min
Overall bit rate : 4 372 kb/s
Writing application : VideoReDo (Lavf56.25.101)
Writing library : VideoReDo (Lavf56.25.101)

Video
ID : 1
Format : AVC
Format/Info : Advanced Video Codec
Format profile : [email protected]
Format settings : CABAC / 4 Ref Frames
Format settings, CABAC : Yes
Format settings, Reference : 4 frames
Codec ID : V_MPEG4/ISO/AVC
Duration : 1 h 5 min
Bit rate : 4 093 kb/s
Width : 1 920 pixels
Height : 1 080 pixels
Display aspect ratio : 16:9
Frame rate mode : Constant
Frame rate : 25.000 FPS
Standard : Component
Color space : YUV
Chroma subsampling : 4:2:0
Bit depth : 8 bits
Scan type : Interlaced
Scan type, store method : Separated fields
Scan order : Top Field First
Bits/(Pixel*Frame) : 0.079
Stream size : 1.88 GiB (94%)
Default : No
Forced : No
Color range : Limited
Color primaries : BT.709
Transfer characteristics : BT.709
Matrix coefficients : BT.709
Duration_Source : General_Duration

Audio
ID : 2
Format : MPEG Audio
Format version : Version 1
Format profile : Layer 2
Codec ID : A_MPEG/L2
Codec ID/Hint : MP2
Duration : 1 h 5 min
Bit rate mode : Constant
Bit rate : 192 kb/s
Channel(s) : 2 channels
Sampling rate : 48.0 kHz
Compression mode : Lossy
Stream size : 90.4 MiB (4%)
Language : Ukrainian
Default : Yes
Forced : No
Duration_Source : General_Duration

Menu
00:00:00.000 : :Chapter 1
00:34:27.360 : :Chapter 2
Скріншоти:


Запис: sergiyko


Золотий реліз (завантажене не впливає на рейтинг)
 Трекер:    Зареєстрований   

Завантажити / скачати фільм українською



відео для новачків



 Зареєстрований:   2020-08-23 23:57
 Розмір:   2.01 GB 
 Оцінка фільму:   10/10 (Голосів: 26)
   
bot 
робот


З нами з: 30.09.07
Востаннє: 26.05.05
Повідомлень: 26001

2020-08-20 15:06  
kryk-v.ya. 
Попереджень: 1
Попереджень: 1 


З нами з: 14.02.14
Востаннє: 30.10.20
Повідомлень: 2289

2020-08-20 18:31  
з задоволенням скачаю і перегляну...дякую..
POMEO 
Відео Гуртом - запис з ТБ
Відео Гуртом - запис з ТБ


З нами з: 01.07.08
Востаннє: 30.10.20
Повідомлень: 1057

2020-08-20 21:33  
нарешті
kinovar 
Новенький


З нами з: 14.05.09
Востаннє: 28.10.20
Повідомлень: 20

2020-08-22 00:01  
На День Прапора ж наче ефір?..
bot 
робот


З нами з: 30.09.07
Востаннє: 26.05.05
Повідомлень: 26001

2020-08-23 23:57  
-FIRE- 
Частий відвідувач


З нами з: 02.08.11
Востаннє: 29.10.20
Повідомлень: 30

2020-08-24 14:02  
Дякую за Реліз! Ось по-більше б таких речей.
13begemotow 
Свій


З нами з: 24.09.14
Востаннє: 18.09.20
Повідомлень: 55

2020-09-11 22:42  
знаю, що в Фейсбуці в однойменній групі, можна переглянути цей фільм за 50 грн. Я сам переглянув і оплатив перегляди для знайомих. Дуже хороший фільм. Такий соромно з торентів качати, як на мене (суб'єктивна думка)
erto 
Новенький


З нами з: 08.03.12
Востаннє: 28.10.20
Повідомлень: 2

2020-09-20 22:49  
Дивився цей фільм на презентації від режисера. Неймовірно якісна робота.
Раджу всім не тільки подивитися, а й хоча б підтримати коштами цей фільм.

ArtemKravchuk 
Новенький


З нами з: 22.08.14
Востаннє: 29.10.20
Повідомлень: 3

2020-10-03 11:58  
На мою думку, це не документальний фільм а агітка. Епічна музика, характерні переходи, яскраве зображення певної категорії суспільства та інше. Мені не сподобалось, хоч і були великі очікування.
Проте рекомендую тим, хто захоче загітувати когось із родичів чи друзів

mjkardash 
Новенький


З нами з: 01.03.11
Востаннє: 29.10.20
Повідомлень: 3

2020-10-09 21:02  
ArtemKravchuk написано:
агітка


Агітація чого? Загітувати до чого?

Ваш часовий пояс: GMT + 2 Години

Нова тема   Відповісти