Вулкан / Volcano (1997) 1080p H.265 Ukr/Eng | Sub Ukr/Eng

Нові коментарі

Нова тема   Відповісти
Автор Повідомлення
Anonymous 







2020-08-20 00:02  
Вулкан / Volcano (1997) 1080p H.265 Ukr/Eng | Sub Ukr/Eng

Вулкан / Volcano (1997) 1080p H.265 Ukr/Eng | Sub Ukr/Eng


Жанр: екшн, драма, фантастика, трилер
Країна: США,
Кінокомпанія: Twentieth Century Fox Film Corporation, Donner/Shuler-Donner Productions, Moritz Original
Режисер: Мік Джексон / Mick Jackson
Актори: Томмі Лі Джонс /Tommy Lee Jones/, Енн Хеш /Anne Heche/, Гебі Хоффманн /Gaby Hoffmann/, Дон Чідл /Don Cheadle/, Жаклін Кім /Jacqueline Kim/, Кіт Девід /Keith David/, Джон Корбетт /John Corbett/, Майкл Рісполі /Michael Rispoli/, Джон Керролл Лінч /John Carroll Lynch

Сюжет:
Лос-Анджелес за час свого існування бачив достатньо стихійних лих: землетрусів, пожеж, повеней. Але тепер «місту янголів» доведеться зіткнутися з найстрашнішою з усіх пережитих катастроф, яка може стерти його з лиця землі. В одному з найщільніше населених районів Лос-Анджелеса раптом активізувався вулкан. Розпечена смертоносна лава вже почала виливатися на вулиці, заповнені автомобілями…

Тривалість: 01:43:51
Якість:

Відео:
кодек: H.265 (HEVC)
розмір кадру: 1920 x 1080
бітрейт: 7 113 кб/с
бітова глибина: 10 біт

Увага! Перед завантаженням переконайтесь, що ваш пристрій відтворення (та/або ПЗ) підтримує H.265 (HEVC)

Аудіо # 1:
мова: українська
переклад: двоголосий закадровий
кодек: AC-3 2.0
бітрейт: 192 кб/с

Аудіо # 2:
мова: англійська
переклад: оригінал
кодек: 5.1
бітрейт: 1510 кб/с

Субтитри # 1: (Full from DVD)
мова: українська
тип: програмні (м'які)
формат: *.srt

Субтитри # 2-3: (Full, SDH)
мова: англійська
тип: програмні (м'які)
формат: *.srt


Info
Код:
General
Unique ID                                : 307913589027268505616825583276106856800 (0xE7A600091E512EF10ACD5D3CC71A3960)
Complete name                            : Volcano (1997) 1080p H.265 [UKR_ENG] [Hurtom].
Format                                   :
Format version                           : Version 4
File size                                : 6.40 GiB
Duration                                 : 1 h 43 min
Overall bit rate                         : 8 816 kb/s
Movie name                               : Вулкан / Volcano (1997)
Encoded date                             : UTC 2020-08-19 10:44:23
Writing application                      : v20.0.0 ('I Am The Sun') 64-bit
Writing library                          : libebml v1.3.5 + v1.4.8
Cover                                    : Yes
Attachments                              : Cover.jpg

Video
ID                                       : 1
Format                                   : HEVC
Format/Info                              : High Efficiency Video Coding
Format profile                           : Main [email protected]@High
Codec ID                                 : V_MPEGH/ISO/HEVC
Duration                                 : 1 h 43 min
Bit rate                                 : 7 113 kb/s
Width                                    : 1 920 pixels
Height                                   : 1 080 pixels
Display aspect ratio                     : 16:9
Frame rate mode                          : Constant
Frame rate                               : 23.976 (23976/1000) FPS
Original frame rate                      : 23.976 (24000/1001) FPS
Color space                              : YUV
Chroma subsampling                       : 4:2:0
Bit depth                                : 10 bits
Bits/(Pixel*Frame)                       : 0.143
Stream size                              : 5.16 GiB (81%)
Title                                    : Вулкан / Volcano (1997)
Writing library                          : x265 3.4+1-7b120308dc64:[Windows][GCC 10.1.0][64 bit] 10bit
Encoding settings                        : cpuid=1111039 / frame-threads=4 / numa-pools=16 / wpp / no-pmode / no-pme / no-psnr / no-ssim / log-level=2 / input-csp=1 / input-res=1920x1080 / interlace=0 / total-frames=149400 / level-idc=41 / high-tier=1 / uhd-bd=0 / ref=5 / no-allow-non-conformance / no-repeat-headers / annexb / no-aud / no-hrd / info / hash=0 / no-temporal-layers / open-gop / min-keyint=23 / keyint=240 / gop-lookahead=0 / bframes=8 / b-adapt=2 / b-pyramid / bframe-bias=0 / rc-lookahead=60 / lookahead-slices=1 / scenecut=40 / hist-scenecut=0 / radl=0 / no-splice / no-intra-refresh / ctu=32 / min-cu-size=8 / rect / amp / max-tu-size=32 / tu-inter-depth=4 / tu-intra-depth=4 / limit-tu=1 / rdoq-level=1 / dynamic-rd=0.00 / no-ssim-rd / signhide / no-tskip / nr-intra=0 / nr-inter=0 / no-constrained-intra / no-strong-intra-smoothing / max-merge=5 / limit-refs=0 / no-limit-modes / me=3 / subme=7 / merange=57 / temporal-mvp / no-frame-dup / no-hme / weightp / weightb / no-analyze-src-pics / deblock=-2:-2 / no-sao / no-sao-non-deblock / rd=6 / selective-sao=0 / no-early-skip / no-rskip / no-fast-intra / no-tskip-fast / no-cu-lossless / b-intra / no-splitrd-skip / rdpenalty=0 / psy-rd=2.00 / psy-rdoq=1.00 / no-rd-refine / no-lossless / cbqpoffs=0 / crqpoffs=0 / rc=crf / crf=21.0 / qcomp=0.70 / qpstep=4 / stats-write=0 / stats-read=0 / vbv-maxrate=50000 / vbv-bufsize=50000 / vbv-init=0.9 / crf-max=0.0 / crf-min=0.0 / ipratio=1.40 / pbratio=1.30 / aq-mode=2 / aq-strength=1.00 / no-cutree / zone-count=0 / no-strict-cbr / qg-size=32 / no-rc-grain / qpmax=69 / qpmin=0 / no-const-vbv / sar=1 / overscan=0 / videoformat=5 / range=0 / colorprim=1 / transfer=1 / colormatrix=1 / chromaloc=0 / display-window=0 / cll=0,0 / min-luma=0 / max-luma=1023 / log2-max-poc-lsb=8 / vui-timing-info / vui-hrd-info / slices=1 / no-opt-qp-pps / no-opt-ref-list-length-pps / no-multi-pass-opt-rps / scenecut-bias=0.05 / hist-threshold=0.01 / no-opt-cu-delta-qp / no-aq-motion / no-hdr10 / no-hdr10-opt / no-dhdr10-opt / no-idr-recovery-sei / analysis-reuse-level=0 / analysis-save-reuse-level=0 / analysis-load-reuse-level=0 / scale-factor=0 / refine-intra=0 / refine-inter=0 / refine-mv=0 / refine-ctu-distortion=0 / no-limit-sao / ctu-info=0 / no-lowpass-dct / refine-analysis-type=0 / copy-pic=1 / max-ausize-factor=1.0 / no-dynamic-refine / no-single-sei / no-hevc-aq / no-svt / no-field / qp-adaptation-range=1.00 / no-scenecut-aware-qpconformance-window-offsets / right=0 / bottom=0 / decoder-max-rate=0
Default                                  : Yes
Forced                                   : No
Color range                              : Limited
Color primaries                          : BT.709
Transfer characteristics                 : BT.709
Matrix coefficients                      : BT.709

Audio #1
ID                                       : 2
Format                                   : AC-3
Format/Info                              : Audio Coding 3
Commercial name                          : Dolby Digital
Codec ID                                 : A_AC3
Duration                                 : 1 h 43 min
Bit rate mode                            : Constant
Bit rate                                 : 192 kb/s
Channel(s)                               : 2 channels
Channel layout                           : L R
Sampling rate                            : 48.0 kHz
Frame rate                               : 31.250 FPS (1536 SPF)
Compression mode                         : Lossy
Stream size                              : 143 MiB (2%)
Title                                    : / 2.0 Ch / 192 kbps / DVO / 2+2
Language                                 : Ukrainian
Service kind                             : Complete Main
Default                                  : Yes
Forced                                   : Yes

Audio #2
ID                                       : 3
Format                                   :
Format/Info                              : Digital Theater Systems
Codec ID                                 : A_DTS
Duration                                 : 1 h 43 min
Bit rate mode                            : Constant
Bit rate                                 : 1 509 kb/s
Channel(s)                               : 6 channels
Channel layout                           : C L R Ls Rs LFE
Sampling rate                            : 48.0 kHz
Frame rate                               : 93.750 FPS (512 SPF)
Bit depth                                : 16 bits
Compression mode                         : Lossy
Stream size                              : 1.09 GiB (17%)
Title                                    : / 5.1 Ch / 1509 kbps / Original
Language                                 : English
Default                                  : No
Forced                                   : No

Text #1
ID                                       : 4
Format                                   : UTF-8
Codec ID                                 : S_TEXT/UTF8
Codec ID/Info                            : UTF-8 Plain Text
Duration                                 : 1 h 43 min
Bit rate                                 : 97 b/s
Count of elements                        : 1341
Stream size                              : 74.3 KiB (0%)
Title                                    : Full from DVD
Language                                 : Ukrainian
Default                                  : No
Forced                                   : No

Text #2
ID                                       : 5
Format                                   : UTF-8
Codec ID                                 : S_TEXT/UTF8
Codec ID/Info                            : UTF-8 Plain Text
Duration                                 : 1 h 40 min
Bit rate                                 : 86 b/s
Count of elements                        : 1803
Stream size                              : 63.8 KiB (0%)
Title                                    : Full
Language                                 : English
Default                                  : No
Forced                                   : No

Text #3
ID                                       : 6
Format                                   : UTF-8
Codec ID                                 : S_TEXT/UTF8
Codec ID/Info                            : UTF-8 Plain Text
Duration                                 : 1 h 40 min
Bit rate                                 : 89 b/s
Count of elements                        : 1932
Stream size                              : 66.3 KiB (0%)
Title                                    : SDH
Language                                 : English
Default                                  : No
Forced                                   : No

Menu
00:00:00.000                             : en:Main Titles
00:03:15.934                             : en:Jolted
00:08:30.601                             : en:Steam Pockets
00:12:20.135                             : en:The Underneath
00:17:11.469                             : en:Family Values
00:20:16.303                             : en:Conjecture
00:25:22.970                             : en:Wake-Up Shake
00:29:57.604                             : en:Fire in the Sky
00:35:45.639                             : en:Engine 17 Down
00:39:18.139                             : en:The Coast is Toast
00:45:37.607                             : en:The Stanley Avenue Snake
00:50:53.909                             : en:An E Ticket Attraction
00:53:27.543                             : en:Lava in the Red Line
01:03:03.212                             : en:A Relentless Tide
01:10:14.713                             : en:Blockade
01:14:32.547                             : en:Victory is Short-Lived
01:17:32.747                             : en:A Lava Tube
01:21:41.914                             : en:What About a Dam?
01:27:19.581                             : en:The Geyser
01:29:51.048                             : en:A Disposable Skyscraper
01:32:10.382                             : en:Down the Drain
01:34:47.216                             : en:The Rains Came
01:38:03.716                             : en:End Credits
01:43:44.783                             : en:Chapter 24
Світлини




Джерело: &
Особиста оцінка: 0 - не дивився


Срібний реліз (на рейтинг впливає 50% завантаженого)
 Трекер:    Зареєстрований   

Завантажити / скачати фільм українською



відео для новачків



 Зареєстрований:   2020-08-20 00:02
 Розмір:   6.4 GB 
 Оцінка фільму:   10/10 (Голосів: 2)
   
Інші релізи
   Вулкан / Volcano (1997) Remux 1080p Ukr/Eng | Sub Eng MakRA  1 / 0   16.85 GB   2019-05-12 11:48 
   Вулкан / Volcano (1997) AVC Ukr/Eng | Sub Eng staf777  4 / 0   2.64 GB   2018-12-12 13:17 
   Вулкан / Volcano (1997) 720p Ukr/Eng | Sub Eng staf777  3 / 0   6.4 GB   2017-02-20 17:36 
   Вулкан / Volcano (1997) patriot2305  3 / 0   1.18 GB   2014-03-24 15:06 
   Вулкан / Volcano (1997) Ukr/Eng | Sub Ukr/Eng _oles  0 / 1   1.72 GB   2010-07-09 16:35 
Ваш часовий пояс: GMT + 2 Години

Нова тема   Відповісти