Фердинанд / Ferdinand (2017) 1080p H.265 Ukr/Eng | Sub Ukr/Eng

Нові коментарі

Нова тема   Відповісти
Автор Повідомлення
Anonymous 







2020-08-18 13:19  
Фердинанд / Ferdinand (2017) 1080p H.265 Ukr/Eng | Sub Ukr/Eng

Фердинанд / Ferdinand (2017) 1080p H.265 Ukr/Eng | Sub Ukr/Eng


Жанр: анімація, комедія, пригодницький
Країна: США
Кінокомпанія: Blue Sky Studios, Davis Entertainment, Twentieth Century Fox Animation
Режисер: Карлос Салдана (Carlos Saldanha)
Актори: Джон Сіна (John Cena), Кейт МакКіннон (Kate McKinnon), Боббі Каннавале (Bobby Cannavale), Джеремі Сісто (Jeremy Sisto), Ентоні Андерсон (Anthony Anderson), Девід Теннант (David Tennant), Джина Родрігез (Gina Rodriguez), Гебріел Іглесіас (Gabriel Iglesias), Саллі Філліпс (Sally Phillips), Борис Коджо (Boris Kodjoe) та інші.

Сюжет:
Більшість із нас зовсім не такі, які можемо здатися ззовні. Так і бик Фердинанд – він величезний, дуже сильний, але неймовірно добрий. Замість того, щоб боцатися з родичами, Фердинанд вважає за краще миролюбно гуляти і спостерігати за природою. Але через свої значні габарити бика вибирають для кориди в Мадриді. Але як він буде битися з іншими лютими биками, якщо сам не може навіть найменшого гризуна образити? Фердинанд повинен відстояти свої переконання не дивлячись ні на що. Тільки будучи собою цей бик може щось змінити у світі. Він не збирається ні з ким битися і тому хоче втекти додому з командою нових друзів. Якщо ти бик, ти не зобов'язаний робити те, що роблять усі бики.

Тривалість: 01:48:12
Якість:

Відео:
кодек: H.265 (HEVC)
розмір кадру: 1920 x 804
бітрейт: 5 601 кб/с
бітова глибина: 10 біт

Увага! Перед завантаженням переконайтесь, що ваш пристрій відтворення (та/або ПЗ) підтримує H.265 (HEVC)

Аудіо # 1:
мова: українська
переклад: професійний дубльований
кодек: AC-3 5.1
бітрейт: 448 кб/с

Аудіо # 2:
мова: англійська
переклад: оригінал
кодек: 5.1
бітрейт: 1510 кб/с

Субтитри # 1-2: (Forced, Full)
мова: українська
тип: програмні (м'які)
формат: *.srt

Субтитри # 3-5: (Full, SDH, SDH-Colored)
мова: англійська
тип: програмні (м'які)
формат: *.srt


Info
Код:
General
Unique ID                                : 110818908806600886940649601504934786203 (0x535EF20B77EE3C19C85545FE6C22749B)
Complete name                            : Ferdinand (2017) 1080p H.265 [UKR_ENG] [Hurtom].
Format                                   :
Format version                           : Version 4
File size                                : 5.71 GiB
Duration                                 : 1 h 48 min
Overall bit rate                         : 7 560 kb/s
Movie name                               : Фердинанд / Ferdinand (2017)
Encoded date                             : UTC 2020-08-18 11:10:14
Writing application                      : v20.0.0 ('I Am The Sun') 64-bit
Writing library                          : libebml v1.3.5 + v1.4.8
Cover                                    : Yes
Attachments                              : Cover.jpg

Video
ID                                       : 1
Format                                   : HEVC
Format/Info                              : High Efficiency Video Coding
Format profile                           : Main [email protected]@High
Codec ID                                 : V_MPEGH/ISO/HEVC
Duration                                 : 1 h 48 min
Bit rate                                 : 5 601 kb/s
Width                                    : 1 920 pixels
Height                                   : 804 pixels
Display aspect ratio                     : 2.40:1
Frame rate mode                          : Constant
Frame rate                               : 23.976 (24000/1001) FPS
Color space                              : YUV
Chroma subsampling                       : 4:2:0
Bit depth                                : 10 bits
Bits/(Pixel*Frame)                       : 0.151
Stream size                              : 4.23 GiB (74%)
Title                                    : Фердинанд / Ferdinand (2017)
Writing library                          : x265 3.3+1-g554c887ac:[Windows][MSVC 1924][64 bit] 10bit
Encoding settings                        : cpuid=1111039 / frame-threads=3 / numa-pools=12 / wpp / no-pmode / no-pme / no-psnr / no-ssim / log-level=2 / input-csp=1 / input-res=1920x804 / interlace=0 / total-frames=140986 / level-idc=41 / high-tier=1 / uhd-bd=0 / ref=5 / no-allow-non-conformance / no-repeat-headers / annexb / no-aud / no-hrd / info / hash=0 / no-temporal-layers / open-gop / min-keyint=23 / keyint=240 / gop-lookahead=0 / bframes=10 / b-adapt=2 / b-pyramid / bframe-bias=0 / rc-lookahead=60 / lookahead-slices=4 / scenecut=40 / hist-scenecut=0 / radl=0 / no-splice / no-intra-refresh / ctu=32 / min-cu-size=8 / rect / amp / max-tu-size=32 / tu-inter-depth=4 / tu-intra-depth=4 / limit-tu=1 / rdoq-level=2 / dynamic-rd=0.00 / no-ssim-rd / signhide / no-tskip / nr-intra=0 / nr-inter=0 / no-constrained-intra / no-strong-intra-smoothing / max-merge=4 / limit-refs=2 / limit-modes / me=3 / subme=7 / merange=57 / temporal-mvp / no-frame-dup / no-hme / weightp / weightb / no-analyze-src-pics / deblock=-3:-3 / no-sao / no-sao-non-deblock / rd=6 / selective-sao=0 / no-early-skip / no-rskip / no-fast-intra / no-tskip-fast / no-cu-lossless / no-b-intra / no-splitrd-skip / rdpenalty=0 / psy-rd=2.00 / psy-rdoq=1.00 / no-rd-refine / no-lossless / cbqpoffs=0 / crqpoffs=0 / rc=crf / crf=19.0 / qcomp=0.60 / qpstep=4 / stats-write=0 / stats-read=0 / vbv-maxrate=50000 / vbv-bufsize=50000 / vbv-init=0.9 / crf-max=0.0 / crf-min=0.0 / ipratio=1.40 / pbratio=1.30 / aq-mode=1 / aq-strength=1.00 / no-cutree / zone-count=0 / no-strict-cbr / qg-size=32 / no-rc-grain / qpmax=69 / qpmin=0 / no-const-vbv / sar=1 / overscan=0 / videoformat=5 / range=0 / colorprim=1 / transfer=1 / colormatrix=1 / chromaloc=0 / display-window=0 / cll=0,0 / min-luma=0 / max-luma=1023 / log2-max-poc-lsb=8 / vui-timing-info / vui-hrd-info / slices=1 / no-opt-qp-pps / no-opt-ref-list-length-pps / no-multi-pass-opt-rps / scenecut-bias=0.05 / hist-threshold=0.01 / no-opt-cu-delta-qp / no-aq-motion / no-hdr10 / no-hdr10-opt / no-dhdr10-opt / no-idr-recovery-sei / analysis-reuse-level=0 / analysis-save-reuse-level=0 / analysis-load-reuse-level=0 / scale-factor=0 / refine-intra=0 / refine-inter=0 / refine-mv=1 / refine-ctu-distortion=0 / no-limit-sao / ctu-info=0 / no-lowpass-dct / refine-analysis-type=0 / copy-pic=1 / max-ausize-factor=1.0 / no-dynamic-refine / no-single-sei / no-hevc-aq / no-svt / no-field / qp-adaptation-range=1.00 / no-scenecut-aware-qpconformance-window-offsets / right=0 / bottom=0
Default                                  : Yes
Forced                                   : No
Color range                              : Limited
Color primaries                          : BT.709
Transfer characteristics                 : BT.709
Matrix coefficients                      : BT.709

Audio #1
ID                                       : 2
Format                                   : AC-3
Format/Info                              : Audio Coding 3
Commercial name                          : Dolby Digital
Codec ID                                 : A_AC3
Duration                                 : 1 h 48 min
Bit rate mode                            : Constant
Bit rate                                 : 448 kb/s
Channel(s)                               : 6 channels
Channel layout                           : L R C LFE Ls Rs
Sampling rate                            : 48.0 kHz
Frame rate                               : 31.250 FPS (1536 SPF)
Compression mode                         : Lossy
Stream size                              : 347 MiB (6%)
Title                                    : / 5.1 Ch / 448 kbps / DUB / Blu-Ray
Language                                 : Ukrainian
Service kind                             : Complete Main
Default                                  : Yes
Forced                                   : Yes

Audio #2
ID                                       : 3
Format                                   :
Format/Info                              : Digital Theater Systems
Codec ID                                 : A_DTS
Duration                                 : 1 h 48 min
Bit rate mode                            : Constant
Bit rate                                 : 1 509 kb/s
Channel(s)                               : 6 channels
Channel layout                           : C L R Ls Rs LFE
Sampling rate                            : 48.0 kHz
Frame rate                               : 93.750 FPS (512 SPF)
Bit depth                                : 24 bits
Compression mode                         : Lossy
Stream size                              : 1.14 GiB (20%)
Title                                    : / 5.1 Ch / 1509 kbps / Original
Language                                 : English
Default                                  : No
Forced                                   : No

Text #1
ID                                       : 4
Format                                   : UTF-8
Codec ID                                 : S_TEXT/UTF8
Codec ID/Info                            : UTF-8 Plain Text
Duration                                 : 1 h 11 min
Bit rate                                 : 0 b/s
Count of elements                        : 3
Stream size                              : 35.0 Bytes (0%)
Title                                    : Forced
Language                                 : Ukrainian
Default                                  : Yes
Forced                                   : Yes

Text #2
ID                                       : 5
Format                                   : UTF-8
Codec ID                                 : S_TEXT/UTF8
Codec ID/Info                            : UTF-8 Plain Text
Duration                                 : 1 h 35 min
Bit rate                                 : 65 b/s
Count of elements                        : 1141
Stream size                              : 45.7 KiB (0%)
Title                                    : Full
Language                                 : Ukrainian
Default                                  : No
Forced                                   : No

Text #3
ID                                       : 6
Format                                   : UTF-8
Codec ID                                 : S_TEXT/UTF8
Codec ID/Info                            : UTF-8 Plain Text
Duration                                 : 1 h 35 min
Bit rate                                 : 45 b/s
Count of elements                        : 1237
Stream size                              : 32.1 KiB (0%)
Title                                    : Full
Language                                 : English
Default                                  : No
Forced                                   : No

Text #4
ID                                       : 7
Format                                   : UTF-8
Codec ID                                 : S_TEXT/UTF8
Codec ID/Info                            : UTF-8 Plain Text
Duration                                 : 1 h 43 min
Bit rate                                 : 58 b/s
Count of elements                        : 1812
Stream size                              : 43.9 KiB (0%)
Title                                    : SDH
Language                                 : English
Default                                  : No
Forced                                   : No

Text #5
ID                                       : 8
Format                                   : UTF-8
Codec ID                                 : S_TEXT/UTF8
Codec ID/Info                            : UTF-8 Plain Text
Duration                                 : 1 h 43 min
Bit rate                                 : 98 b/s
Count of elements                        : 1826
Stream size                              : 74.3 KiB (0%)
Title                                    : SDH-Colored
Language                                 : English
Default                                  : No
Forced                                   : No

Menu
00:00:00.000                             : :Chapter 01
00:03:37.800                             : :Chapter 02
00:08:10.281                             : :Chapter 03
00:11:51.460                             : :Chapter 04
00:16:23.524                             : :Chapter 05
00:24:14.870                             : :Chapter 06
00:28:30.458                             : :Chapter 07
00:34:03.124                             : :Chapter 08
00:37:53.187                             : :Chapter 09
00:40:54.160                             : :Chapter 10
00:44:55.359                             : :Chapter 11
00:49:15.994                             : :Chapter 12
00:53:27.245                             : :Chapter 13
00:59:40.952                             : :Chapter 14
01:03:20.671                             : :Chapter 15
01:06:23.270                             : :Chapter 16
01:09:19.822                             : :Chapter 17
01:12:18.917                             : :Chapter 18
01:17:33.940                             : :Chapter 19
01:20:55.058                             : :Chapter 20
01:25:33.837                             : :Chapter 21
01:30:38.391                             : :Chapter 22
01:36:01.839                             : :Chapter 23
01:38:01.166                             : :Chapter 24
Світлини




Джерело: &
Особиста оцінка: 0 - не дивився


 Трекер:    Зареєстрований   

Завантажити / скачати мультфільм українською



відео для новачків



 Зареєстрований:   2020-08-18 13:19
 Розмір:   5.71 GB 
 Оцінка мультфільму:   9.8/10 (Голосів: 8)
   
Інші релізи
   Фердинанд / Ferdinand (2017) UHD Remux 4K 2160p HDR H.265 Ukr/Eng | Sub Ukr/Eng Devil_my_cry  9 / 0   39.94 GB   2018-03-19 19:42 
   Фердинанд / Ferdinand (2017) Remux 1080p Ukr/Eng | Sub Ukr/Eng staf777  7 / 0   24.16 GB   2018-03-16 15:12 
   Фердинанд / Ferdinand (2017) 1080p Ukr/Eng | Sub Ukr/Eng staf777  23 / 0   8.65 GB   2018-03-15 22:10 
   Фердинанд / Ferdinand (2017) AVC Ukr/Eng | Sub Ukr/Eng 11FrYkT  27 / 0   1.8 GB   2018-03-15 21:59 
   Фердинанд / Ferdinand (2017) 720p Ukr/Eng | Sub Ukr/Eng 11FrYkT  33 / 0   4.3 GB   2018-03-15 21:16 
   Фердинанд / Ferdinand (2017) Ukr/Eng | Sub Ukr/Eng Electroz  8 / 0   2.05 GB   2018-03-15 20:30 
   Фердинанд / Ferdinand (2017) Jatx_11  43 / 1   1.46 GB   2018-03-15 18:59 
Ваш часовий пояс: GMT + 2 Години

Нова тема   Відповісти