Тринадцять / Thirteen / 13 (Серії 2 із 4) (2020) HDTV 720p Jap | Ukr Sub

Нові коментарі

Нова тема   Відповісти
Останній раз роздавалося Python_3.2 (2020-11-28)
Автор Повідомлення
ksanka45 
Поважний учасник


З нами з: 04.06.11
Востаннє: 22.11.20
Повідомлень: 170

2020-08-18 01:08  
Тринадцять / Thirteen / 13 (Серії 2 із 4) (2020) HDTV 720p Jap | Ukr Sub

Тринадцять / Thirteen / 13 (Серії 2 із 4) (2020) HDTV 720p Jap | Ukr Sub


Жанр: детектив
Країна: Японія

Кінокомпанія: Fuji TV, Tokai TV
Режисер: Мідзута Нарухіде
Актори: Сакураба Нанамі, Аояґі Шьо, Ітая Юка, Юі Рьоко, Ішікава Рука, Іноуе Юкі

Сюжет:
Після 13-річного зникнення Юрія повертається додому. Тепер вона виглядає як 26-річна жінка, але її психічний стан лишається на рівні 13-річної дівчинки, якою вона була до зникнення.
Після тієї трагедії її родина розпалася. Та заради Юрії мати Асамі, батько Соїчі та сестра Чіхо вдають, ніби їхня сім’я досі дружня й щаслива.
Юрія сказала слідчим Наґаю й Танабе, що 13 років тому її викрали й тримали замкненою проти волі. Однак слідчі не певні, чи можна вірити її словам.
Ремейк однойменного серіалу ВВС.


Тривалість: 4 серії по 45 хв.
Якість:
Відео:
кодек:
розмір кадру: 1280 х 720
бітрейт: 2 316 кб/с

Аудіо:
мова: японська
переклад: оригінал
кодек: 2.0
бітрейт: 252 кб/с

Субтитри:
мова: українська
тип: програмні (м'які)
формат: *.
Info

General
Unique ID : 132246194889989968870749648370295993117 (0x637DB0D0350CFB15611014DE61C9731D)
Complete name : D:\Thirteen\Thirteen 01 THK 1280x720 .
Format :
Format version : Version 4
File size : 805 MiB
Duration : 43 min 44 s
Overall bit rate : 2 571 kb/s
Encoded date : UTC 2020-08-01 17:45:12
Writing application : v48.0.0 ('Fortress Around Your Heart') 64-bit
Writing library : libebml v1.4.0 + v1.6.0

Video
ID : 1
Format : AVC
Format/Info : Advanced Video Codec
Format profile : [email protected]
Format settings : CABAC / 9 Ref Frames
Format settings, CABAC : Yes
Format settings, Reference fra : 9 frames
Codec ID : V_MPEG4/ISO/AVC
Duration : 43 min 44 s
Bit rate : 2 316 kb/s
Width : 1 280 pixels
Height : 720 pixels
Display aspect ratio : 16:9
Frame rate mode : Constant
Frame rate : 29.970 (30000/1001) FPS
Color space : YUV
Chroma subsampling : 4:2:0
Bit depth : 8 bits
Scan type : Progressive
Bits/(Pixel*Frame) : 0.084
Stream size : 725 MiB (90%)
Writing library : core 160 r3007+53 ab26477 t_mod_New [(8 & 10)[email protected] X86_64]
Encoding settings : cabac=1 / ref=9 / deblock=1:-1:-1 / analyse=0x3:0x133 / me=umh / subme=10 / psy=1 / fade_compensate=0.00 / psy_rd=1.00:0.00 / mixed_ref=1 / me_range=24 / chroma_me=1 / trellis=2 / 8x8dct=1 / cqm=0 / deadzone=21,11 / fast_pskip=1 / chroma_qp_offset=-2 / threads=12 / lookahead_threads=2 / sliced_threads=0 / nr=0 / decimate=1 / interlaced=0 / bluray_compat=0 / constrained_intra=0 / fgo=0 / bframes=8 / b_pyramid=2 / b_adapt=2 / b_bias=0 / direct=3 / weightb=1 / open_gop=0 / weightp=2 / keyint=250 / keyint_min=25 / scenecut=40 / intra_refresh=0 / rc_lookahead=60 / rc=crf / mbtree=1 / crf=18.0000 / qcomp=0.70 / qpmin=0:0:0 / qpmax=69:69:69 / qpstep=4 / ip_ratio=1.40 / aq=2:1.00 / aq-sensitivity=10.00 / aq-factor=1.00:1.00:1.00 / aq2=0 / aq3=0
Default : Yes
Forced : No
Color range : Limited
Matrix coefficients : BT.709

Audio
ID : 2
Format : LC
Format/Info : Advanced Audio Codec Low Complexity
Codec ID : A_AAC-2
Duration : 43 min 44 s
Bit rate : 252 kb/s
Channel(s) : 2 channels
Channel layout : L R
Sampling rate : 48.0 kHz
Frame rate : 46.875 FPS (1024 SPF)
Compression mode : Lossy
Stream size : 79.0 MiB (10%)
Default : Yes
Forced : No
Скріншоти







Джерело: Otaku no Sekai
Переклад: Rosava
Особиста оцінка: 8 - мені сподобалося


Золотий реліз (завантажене не впливає на рейтинг)
 Трекер:    Зареєстрований   

Завантажити / скачати серіал українською



відео для новачків



 Зареєстрований:   2020-08-19 17:49
 Розмір:   1.52 GB 
 Оцінка серіалу:   10/10 (Голосів: 1)
   
ksanka45 
Поважний учасник


З нами з: 04.06.11
Востаннє: 22.11.20
Повідомлень: 170

2020-08-19 17:51  
Додано другу серію!
Будь ласка, перезавантажте торент!

11FrYkT 
Модератор відео


З нами з: 20.02.11
Востаннє: 27.11.20
Повідомлень: 7033

2020-09-22 11:55  
ksanka45 , є перелік серій, їх назви? додайте
Ваш часовий пояс: GMT + 2 Години

Нова тема   Відповісти