Монстри на острові / Friends: Mononokeshima no Naki (2011) 1080p

Нові коментарі

Нова тема   Відповісти
Автор Повідомлення
sergiyko.5 
Забанено
Забанено


З нами з: 25.02.16
Востаннє: 29.10.20
Повідомлень: 3648

2020-08-17 16:30  
Монстри на острові / Friends: Mononokeshima no Naki (2011) 1080p


Монстри на острові / Friends: Mononokeshima no Naki (2011) 1080p

Жанр: анімація, пригодницький, фентезі
Країна: Японія, Канада
Кінокомпанія: Abe Shuji, Hakuhodo DY Media Partners, J Dream
Режисер: Такаші Ямадзакі
Актори: Садао Абе, Шинго Каторі, Сейсіро Като, Коїті Ямадера

Сюжет:
Далеко в океані, укритий густим туманом і схожий на привида, сховався Острів. За легендою, на ньому живуть монстри, які охороняють чудові ягоди та гриби, що ростуть там. Наближатися до Острова заборонено...

Одного разу хлопчик з племені випадково опинився на Острові й зіткнувся віч-на-віч з усім таємничим, що на ньому було. Хто захистить дитину від монстрів? Або монстрів від дитини? Адже хлопчик виявився справжнім чортеням. Монстри, утомившись від його витівок, вирішили відправити його назад. Чи потрапить він назад додому та чи збереже таємницю Острова? Розгадка настане в самому кінці…





Тривалість: 01:27:29
Якість:

Відео: кодек: розмір кадру: 1888 х 1072 бітрейт: 4000 кб/с
Аудіо: мова: українська озвучення: професійне дубльоване кодек: 2.0 бітрейт: 192 кб/с | ТЕТ |
Про файл:
General
Unique ID : 12561923260895335876005612800376897545 (0x97356A27A7F87E33689F75F49390009)
Complete name : D:\Documents\Torrents\FILMS\Friends.Naki.on.the.Monster.island.2011.1080p..
Format :
Format version : Version 4
File size : 2.56 GiB
Duration : 1 h 27 min
Overall bit rate : 4 194 kb/s
Movie name : Friends.Naki.on.the.Monster.island.2011 rip by sergiyko
Encoded date : UTC 2020-08-17 14:24:58
Writing application : v47.0.0 ('Black Flag') 64-bit
Writing library : libebml v1.3.10 + v1.5.2
Cover : Yes
Attachments : cover.jpeg

Video
ID : 1
Format : AVC
Format/Info : Advanced Video Codec
Format profile : [email protected]
Format settings : CABAC / 3 Ref Frames
Format settings, CABAC : Yes
Format settings, Reference : 3 frames
Codec ID : V_MPEG4/ISO/AVC
Duration : 1 h 27 min
Bit rate : 4 000 kb/s
Width : 1 888 pixels
Height : 1 072 pixels
Display aspect ratio : 16:9
Frame rate mode : Constant
Frame rate : 24.000 FPS
Color space : YUV
Chroma subsampling : 4:2:0
Bit depth : 8 bits
Scan type : Progressive
Bits/(Pixel*Frame) : 0.082
Stream size : 2.44 GiB (95%)
Title : Friends.Naki.on.the.Monster.island.2011
Writing library : core 142 r2389 956c8d8
Encoding settings : cabac=1 / ref=3 / deblock=1:0:0 / analyse=0x3:0x133 / me=umh / subme=7 / psy=1 / psy_rd=1.00:0.00 / mixed_ref=1 / me_range=32 / chroma_me=1 / trellis=2 / 8x8dct=1 / cqm=0 / deadzone=21,11 / fast_pskip=1 / chroma_qp_offset=-2 / threads=12 / lookahead_threads=2 / sliced_threads=0 / nr=0 / decimate=1 / interlaced=0 / bluray_compat=0 / constrained_intra=0 / bframes=0 / weightp=0 / keyint=72 / keyint_min=25 / scenecut=40 / intra_refresh=0 / rc_lookahead=50 / rc=2pass / mbtree=0 / bitrate=4000 / ratetol=1.0 / qcomp=0.20 / qpmin=10 / qpmax=51 / qpstep=4 / cplxblur=20.0 / qblur=0.5 / vbv_maxrate=5000 / vbv_bufsize=5000 / nal_hrd=none / filler=0 / ip_ratio=1.40 / aq=1:1.00
Language : English
Default : Yes
Forced : No
Color range : Limited
Color primaries : BT.709
Transfer characteristics : BT.709
Matrix coefficients : BT.709

Audio
ID : 2
Format : LC
Format/Info : Advanced Audio Codec Low Complexity
Codec ID : A_AAC-2
Duration : 1 h 27 min
Bit rate : 192 kb/s
Channel(s) : 2 channels
Channel layout : L R
Sampling rate : 44.1 kHz
Frame rate : 43.066 FPS (1024 SPF)
Compression mode : Lossy
Stream size : 120 MiB (5%)
Title : DUB | ТЕТ
Language : Ukrainian
Default : Yes
Forced : No
Скріншоти:


Запис: sergiyko


 Трекер:    Зареєстрований   

Завантажити / скачати мультфільм українською



відео для новачків



 Зареєстрований:   2020-08-17 16:30
 Розмір:   2.56 GB 
 Оцінка мультфільму:   10/10 (Голосів: 8)
   
Інші релізи
Ваш часовий пояс: GMT + 2 Години

Нова тема   Відповісти