Скубі-Ду! / Scoob! (2020) Remux 1080p Ukr/Eng | Sub Eng

Нові коментарі

Нова тема   Відповісти
Автор Повідомлення
Anonymous 







2020-08-17 09:51  
Скубі-Ду! / Scoob! (2020) Remux 1080p Ukr/Eng | Sub Eng


«Гавкастична пригода розпочинається»



Жанр: детектив, комедія, анімаційний, пригодницький, сімейний
Країна: США, Канада



Кінокомпанія: Canadian Film or Video Production Tax Credit (CPTC), Hanna-Barbera Productions, Warner Animation Group, Warner Bros
Режисер: Тоні Червоне
Ролі озвучують: Френк Велкер, Уілл Форте, Ієн Ермітаж, Марк Волберг, Джейсон Айзекс, Джина Родрігез, Зак Ефрон, Аманда Сейфрід, Кірсі Клемонс, Кен Жонг

Сюжет:
«Скубі-Ду!» розповідає про першу зустріч Скубі та Шеґґі, яким судилось стати нерозлучними друзями. А також про те, як вони познайомились з юними детективами Фредом, Вельмою і Дафною та разом заснували відому компанію Mystery Inc. На друзів чекає найскладніша справа в історії: їм потрібно розгадати таємничу змову – спробу випустити у світ собаку-привида на прізвисько Цербер. Відчайдушна команда прагне спинити цей глобальний «собакаліпсис». Однак згодом вони дізнаються, що Скубі має загадкове минуле і долю епічнішу, ніж будь-хто тільки міг уявити!


Тривалість: 01:33:47
Якість: Remux 1080p

Відео:
кодек:
розмір кадру: 1920 x 1080
бітрейт: ~30000 кб/с

Аудіо # 1:
мова: українська
переклад: професійний дубльований
кодек: 5.1
бітрейт: 384 кб/с

Аудіо # 2:
мова: англійська
переклад: оригінал
кодек: 5.1
бітрейт: 640 кб/с

Аудіо # 3:
мова: англійська
переклад: оригінал
кодек: -HD MA 5.1
бітрейт: 2314 кб/с

Субтитри # 1 - 2: (Full, SDH)
мова: англійська
тип: програмні (м'які)
формат: *.srt
Info
Код:
General
Complete name                            : Scoob! (2020) Remux 1080p [ukr, eng] [Video_Hurtom].
Format                                   :
Format version                           : Version 4
File size                                : 21.7 GiB
Duration                                 : 1 h 33 min
Overall bit rate mode                    : Variable
Overall bit rate                         : 33.2 Mb/s
Movie name                               : Скубі-Ду! / Scoob! (2020)
Encoded date                             : UTC 2020-08-17 07:38:20
Writing application                      : v30.1.0 ('Forever And More') 64-bit
Writing library                          : libebml v1.3.6 + v1.4.9
Cover                                    : Yes
Attachments                              : cover.jpg

Video
ID                                       : 1
Format                                   : AVC
Format/Info                              : Advanced Video Codec
Format profile                           : [email protected]
Format settings                          : CABAC / 4 Ref Frames
Format settings, CABAC                   : Yes
Format settings, RefFrames               : 4 frames
Codec ID                                 : V_MPEG4/ISO/AVC
Duration                                 : 1 h 33 min
Bit rate mode                            : Variable
Bit rate                                 : 30.0 Mb/s
Maximum bit rate                         : 32.0 Mb/s
Width                                    : 1 920 pixels
Height                                   : 1 080 pixels
Display aspect ratio                     : 16:9
Frame rate mode                          : Constant
Frame rate                               : 23.976 (24000/1001) FPS
Color space                              : YUV
Chroma subsampling                       : 4:2:0
Bit depth                                : 8 bits
Scan type                                : Progressive
Bits/(Pixel*Frame)                       : 0.604
Stream size                              : 19.7 GiB (91%)
Language                                 : English
Default                                  : Yes
Forced                                   : No

Audio #1
ID                                       : 2
Format                                   : AC-3
Format/Info                              : Audio Coding 3
Commercial name                          : Dolby Digital
Codec ID                                 : A_AC3
Duration                                 : 1 h 33 min
Bit rate mode                            : Constant
Bit rate                                 : 384 kb/s
Channel(s)                               : 6 channels
Channel layout                           : L R C LFE Ls Rs
Sampling rate                            : 48.0 kHz
Frame rate                               : 31.250 FPS (1536 SPF)
Bit depth                                : 16 bits
Compression mode                         : Lossy
Stream size                              : 257 MiB (1%)
Title                                    : 5.1 | 384
Language                                 : Ukrainian
Service kind                             : Complete Main
Default                                  : Yes
Forced                                   : No

Audio #2
ID                                       : 3
Format                                   : AC-3
Format/Info                              : Audio Coding 3
Commercial name                          : Dolby Digital
Codec ID                                 : A_AC3
Duration                                 : 1 h 33 min
Bit rate mode                            : Constant
Bit rate                                 : 448 kb/s
Channel(s)                               : 6 channels
Channel layout                           : L R C LFE Ls Rs
Sampling rate                            : 48.0 kHz
Frame rate                               : 31.250 FPS (1536 SPF)
Bit depth                                : 16 bits
Compression mode                         : Lossy
Stream size                              : 300 MiB (1%)
Title                                    : 5.1 | 448
Language                                 : English
Service kind                             : Complete Main
Default                                  : No
Forced                                   : No

Audio #3
ID                                       : 4
Format                                   : XLL
Format/Info                              : Digital Theater Systems
Commercial name                          : -HD Master Audio
Codec ID                                 : A_DTS
Duration                                 : 1 h 33 min
Bit rate mode                            : Variable
Bit rate                                 : 2 314 kb/s
Channel(s)                               : 6 channels
Channel layout                           : C L R Ls Rs LFE
Sampling rate                            : 48.0 kHz
Frame rate                               : 93.750 FPS (512 SPF)
Bit depth                                : 16 bits
Compression mode                         : Lossless
Stream size                              : 1.52 GiB (7%)
Title                                    : -HD Master 5.1 | 2314
Language                                 : English
Default                                  : No
Forced                                   : No

Text #1
ID                                       : 5
Format                                   : UTF-8
Codec ID                                 : S_TEXT/UTF8
Codec ID/Info                            : UTF-8 Plain Text
Duration                                 : 1 h 31 min
Bit rate                                 : 68 b/s
Count of elements                        : 1508
Stream size                              : 46.1 KiB (0%)
Title                                    : Full
Language                                 : English
Default                                  : No
Forced                                   : No

Text #2
ID                                       : 6
Format                                   : UTF-8
Codec ID                                 : S_TEXT/UTF8
Codec ID/Info                            : UTF-8 Plain Text
Duration                                 : 1 h 31 min
Bit rate                                 : 82 b/s
Count of elements                        : 1885
Stream size                              : 55.5 KiB (0%)
Title                                    : SDH
Language                                 : English
Default                                  : No
Forced                                   : No

Menu
00:00:00.000                             : en:Chapter 1
00:07:40.460                             : en:Chapter 2
00:15:15.748                             : en:Chapter 3
00:25:04.085                             : en:Chapter 4
00:34:40.203                             : en:Chapter 5
00:44:58.779                             : en:Chapter 6
00:53:22.532                             : en:Chapter 7
01:01:22.095                             : en:Chapter 8
01:10:20.382                             : en:Chapter 9
01:19:34.352                             : en:Chapter 10
01:27:18.066                             : en:Chapter 11
Скріншоти


Джерело:
Особиста оцінка: 9 - давно не бачив настільки якісного мультфільму


Золотий реліз (завантажене не впливає на рейтинг)
 Трекер:    Зареєстрований   

Завантажити / скачати мультфільм українською



відео для новачків



 Зареєстрований:   2020-08-17 09:51
 Розмір:   21.73 GB 
 Оцінка мультфільму:   9.3/10 (Голосів: 14)
   
Інші релізи
   Скубі-Ду! / Scoob! (2020) 1080p H.265 Ukr/Eng | Sub Eng -Star-Lord-  11 / 0   5.66 GB   2020-08-18 12:31 
   Скубі-Ду! / Scoob! (2020) Ukr/Eng antik_2008  19 / 0   2 GB   2020-08-17 02:50 
   Скубі-Ду! / Scoob! (2020) UHD Remux 4K 2160p Ukr/Eng | Sub Eng antik_2008  5 / 0   43.56 GB   2020-08-17 01:03 
   Скубі-Ду! / Scoob! (2020) 1080p Ukr/Eng | Sub Eng antik_2008  3 / 0   9.84 GB   2020-08-16 23:07 
   Скубі-Ду! / Scoob! (2020) 720p Ukr/Eng | Sub Eng antik_2008  7 / 0   4.8 GB   2020-08-16 22:40 
   Скубі-Ду! / Scoob! (2020) AVC Ukr/Eng | Sub Eng 11FrYkT  9 / 0   2.13 GB   2020-08-16 21:15 
Ваш часовий пояс: GMT + 2 Години

Нова тема   Відповісти