Скубі-Ду! / Scoob! (2020) 1080p Ukr/Eng | Sub Eng

Нові коментарі

Нова тема   Відповісти
Автор Повідомлення
Anonymous 







2020-08-16 23:07  
Скубі-Ду! / Scoob! (2020) 1080p Ukr/Eng | Sub Eng


«Гавкастична пригода розпочинається»



Жанр: детектив, комедія, мультфільм, пригоди, сімейний
Країна: США, Канада



Кінокомпанія: Canadian Film or Video Production Tax Credit (CPTC), Hanna-Barbera Productions, Warner Animation Group, Warner Bros
Режисер: Тоні Червоне
Ролі озвучують: Френк Велкер, Уілл Форте, Ієн Ермітаж, Марк Волберг, Джейсон Айзекс, Джина Родрігез, Зак Ефрон, Аманда Сейфрід, Кірсі Клемонс, Кен Жонг

Сюжет:
«Скубі-Ду!» розповідає про першу зустріч Скубі та Шеґґі, яким судилось стати нерозлучними друзями. А також про те, як вони познайомились з юними детективами Фредом, Вельмою і Дафною та разом заснували відому компанію Mystery Inc. На друзів чекає найскладніша справа в історії: їм потрібно розгадати таємничу змову – спробу випустити у світ собаку-привида на прізвисько Цербер. Відчайдушна команда прагне спинити цей глобальний «собакаліпсис». Однак згодом вони дізнаються, що Скубі має загадкове минуле і долю епічнішу, ніж будь-хто тільки міг уявити!


Тривалість: 01:33:47
Якість: 1080p

Відео:
кодек:
розмір кадру: 1920x804
бітрейт: 14000 кб/с

Аудіо # 1:
мова: українська
переклад: професійний дубльований
кодек: 5.1
бітрейт: 384 кб/с

Аудіо # 2:
мова: англійська
переклад: оригінал
кодек: 5.1
бітрейт: 640 кб/с

Субтитри # 1: (Full)
мова: англійська
тип: програмні (м'які)
формат: *.srt
Скріншоти


Info
Код:
General
Complete name                            : Scoob! (2020) 1080p [UKR_ENG] [Video_Hurtom].
Format                                   :
Format version                           : Version 4
File size                                : 9.84 GiB
Duration                                 : 1 h 33 min
Overall bit rate                         : 15.0 Mb/s
Movie name                               : Скубі-Ду! / Scoob! (2020)
Encoded date                             : UTC 2020-08-16 20:42:50
Writing application                      : v30.1.0 ('Forever And More') 64-bit
Writing library                          : libebml v1.3.6 + v1.4.9
Cover                                    : Yes
Attachments                              : cover.jpg

Video
ID                                       : 1
Format                                   : AVC
Format/Info                              : Advanced Video Codec
Format profile                           : [email protected]
Format settings                          : CABAC / 5 Ref Frames
Format settings, CABAC                   : Yes
Format settings, RefFrames               : 5 frames
Codec ID                                 : V_MPEG4/ISO/AVC
Duration                                 : 1 h 33 min
Bit rate                                 : 14.0 Mb/s
Width                                    : 1 920 pixels
Height                                   : 804 pixels
Display aspect ratio                     : 2.40:1
Frame rate mode                          : Constant
Frame rate                               : 23.976 (24000/1001) FPS
Color space                              : YUV
Chroma subsampling                       : 4:2:0
Bit depth                                : 8 bits
Scan type                                : Progressive
Bits/(Pixel*Frame)                       : 0.378
Stream size                              : 9.17 GiB (93%)
Title                                    : PbK
Writing library                          : core 160 r3000+53 e3e4c3e t_mod_New [(8 & 10)[email protected] X86_64]
Encoding settings                        : cabac=1 / ref=5 / deblock=1:-3:-3 / analyse=0x3:0x133 / me=umh / subme=10 / psy=1 / fade_compensate=0.00 / psy_rd=1.00:0.00 / mixed_ref=1 / me_range=48 / chroma_me=1 / trellis=2 / 8x8dct=1 / cqm=0 / deadzone=21,11 / fast_pskip=0 / chroma_qp_offset=-2 / threads=16 / lookahead_threads=4 / sliced_threads=0 / nr=0 / decimate=0 / interlaced=0 / bluray_compat=0 / constrained_intra=0 / fgo=0 / bframes=12 / b_pyramid=2 / b_adapt=2 / b_bias=0 / direct=3 / weightb=1 / open_gop=0 / weightp=2 / keyint=480 / keyint_min=24 / scenecut=40 / intra_refresh=0 / rc_lookahead=80 / rc=2pass / mbtree=0 / bitrate=14000 / ratetol=1.0 / qcomp=0.60 / qpmin=0:0:0 / qpmax=69:69:69 / qpstep=4 / cplxblur=20.0 / qblur=0.5 / vbv_maxrate=62500 / vbv_bufsize=78125 / nal_hrd=none / filler=0 / ip_ratio=1.30 / pb_ratio=1.20 / aq=3:0.80 / aq-sensitivity=10.00 / aq-factor=1.00:1.00:1.00 / aq2=0 / aq3=0
Language                                 : English
Default                                  : Yes
Forced                                   : No
Color range                              : Limited
Color primaries                          : BT.709
Transfer characteristics                 : BT.709
Matrix coefficients                      : BT.709

Audio #1
ID                                       : 2
Format                                   : AC-3
Format/Info                              : Audio Coding 3
Commercial name                          : Dolby Digital
Codec ID                                 : A_AC3
Duration                                 : 1 h 33 min
Bit rate mode                            : Constant
Bit rate                                 : 384 kb/s
Channel(s)                               : 6 channels
Channel layout                           : L R C LFE Ls Rs
Sampling rate                            : 48.0 kHz
Frame rate                               : 31.250 FPS (1536 SPF)
Bit depth                                : 16 bits
Compression mode                         : Lossy
Stream size                              : 257 MiB (3%)
Title                                    : 5.1 | 384
Language                                 : Ukrainian
Service kind                             : Complete Main
Default                                  : Yes
Forced                                   : No

Audio #2
ID                                       : 3
Format                                   : AC-3
Format/Info                              : Audio Coding 3
Commercial name                          : Dolby Digital
Codec ID                                 : A_AC3
Duration                                 : 1 h 33 min
Bit rate mode                            : Constant
Bit rate                                 : 640 kb/s
Channel(s)                               : 6 channels
Channel layout                           : L R C LFE Ls Rs
Sampling rate                            : 48.0 kHz
Frame rate                               : 31.250 FPS (1536 SPF)
Bit depth                                : 16 bits
Compression mode                         : Lossy
Stream size                              : 429 MiB (4%)
Title                                    : 5.1 | 640
Language                                 : English
Service kind                             : Complete Main
Default                                  : No
Forced                                   : No

Text
ID                                       : 4
Format                                   : UTF-8
Codec ID                                 : S_TEXT/UTF8
Codec ID/Info                            : UTF-8 Plain Text
Duration                                 : 1 h 26 min
Bit rate                                 : 65 b/s
Count of elements                        : 1483
Stream size                              : 41.9 KiB (0%)
Title                                    : Full
Language                                 : English
Default                                  : No
Forced                                   : No

Menu
00:00:00.000                             : en:Chapter 1
00:07:40.460                             : en:Chapter 2
00:15:15.748                             : en:Chapter 3
00:25:04.086                             : en:Chapter 4
00:34:40.203                             : en:Chapter 5
00:44:58.779                             : en:Chapter 6
00:53:22.533                             : en:Chapter 7
01:01:22.095                             : en:Chapter 8
01:10:20.383                             : en:Chapter 9
01:19:34.353                             : en:Chapter 10
01:27:18.066                             : en:Chapter 11
Джерело:
Особиста оцінка: 9 - давно не бачив настільки якісне мультфільму


 Трекер:    Зареєстрований   

Завантажити / скачати мультфільм українською



відео для новачків



 Зареєстрований:   2020-08-16 23:07
 Розмір:   9.84 GB 
 Оцінка мультфільму:   9.3/10 (Голосів: 7)
   
Інші релізи
   Скубі-Ду! / Scoob! (2020) 1080p H.265 Ukr/Eng | Sub Eng -Star-Lord-  26 / 0   5.66 GB   2020-08-18 12:31 
   Скубі-Ду! / Scoob! (2020) Remux 1080p Ukr/Eng | Sub Eng antik_2008  6 / 0   21.73 GB   2020-08-17 09:51 
   Скубі-Ду! / Scoob! (2020) Ukr/Eng antik_2008  40 / 0   2 GB   2020-08-17 02:50 
   Скубі-Ду! / Scoob! (2020) UHD Remux 4K 2160p Ukr/Eng | Sub Eng antik_2008  8 / 0   43.56 GB   2020-08-17 01:03 
   Скубі-Ду! / Scoob! (2020) 720p Ukr/Eng | Sub Eng antik_2008  18 / 0   4.8 GB   2020-08-16 22:40 
   Скубі-Ду! / Scoob! (2020) AVC Ukr/Eng | Sub Eng 11FrYkT  20 / 1   2.13 GB   2020-08-16 21:15 
Ваш часовий пояс: GMT + 2 Години

Нова тема   Відповісти