Формула 1. Сезон 2020. Етап 6. Гран-Прі Іспанії. Гонка (16.08.2020) IPTV 1080p 2xUkr/Eng/Int

Нові коментарі

Нова тема   Відповісти
Автор Повідомлення
sergiyko.5 
Забанено
Забанено


З нами з: 25.02.16
Востаннє: 29.10.20
Повідомлень: 3651

2020-08-16 17:50  
Формула 1. Сезон 2020. Етап 6. Гран-Прі Іспанії. Гонка (16.08.2020) IPTV 1080p 2xUkr/Eng/Int


Формула 1. Сезон 2020. Етап 6. Гран-Прі Іспанії. Гонка (16.08.2020) IPTV 1080p 2xUkr/Eng/Int

Жанр: Перегони Формули 1
Країна: Іспанія
Телеканал: F1TV
Коментар: Максим Подзігун, Роман Гончаров, англійською

Опис:
Гонка шостого етапу Гран-Прі Іспанії 2020 року.


Якість: IPTV

Відео:кодек: розмір кадру: 1920 х 1080 бітрейт: 6000 кб/с 25 кад/с
Аудіо 1: мова: українська кодек: 2.0 бітрейт: 192 кб/с
Аудіо 2: мова: українська кодек: 2.0 бітрейт: 192 кб/с
Аудіо 3: мова: англійська кодек: 2.0 бітрейт: 192 кб/с
Аудіо 4: мова: - кодек: 2.0 бітрейт: 192 кб/с
Тривалість:
02:10:16
Про файл:
General
Unique ID : 115949500819102078352345635784389394976 (0x573B0FC2D13AA42C65C9A28982718220)
Complete name : D:\Documents\Torrents\FILMS\F1.2020.06.Spain.Race.1080p.IPTV.Ukr.Eng.Int.
Format :
Format version : Version 4
File size : 5.59 GiB
Duration : 2 h 10 min
Overall bit rate : 6 138 kb/s
Encoded date : UTC 2020-08-16 16:51:30
Writing application : v47.0.0 ('Black Flag') 64-bit
Writing library : libebml v1.3.10 + v1.5.2

Video
ID : 1
Format : AVC
Format/Info : Advanced Video Codec
Format profile : [email protected]
Format settings : CABAC / 4 Ref Frames
Format settings, CABAC : Yes
Format settings, Reference : 4 frames
Format settings, GOP : M=4, N=50
Codec ID : V_MPEG4/ISO/AVC
Duration : 2 h 10 min
Bit rate mode : Constant
Bit rate : 5 500 kb/s
Width : 1 920 pixels
Height : 1 080 pixels
Display aspect ratio : 16:9
Frame rate mode : Constant
Frame rate : 25.000 FPS
Color space : YUV
Chroma subsampling : 4:2:0
Bit depth : 8 bits
Scan type : Progressive
Bits/(Pixel*Frame) : 0.106
Stream size : 5.00 GiB (90%)
Title : Sky Sports F1
Language : English
Default : Yes
Forced : No

Audio #1
ID : 2
Format : AC-3
Format/Info : Audio Coding 3
Commercial name : Dolby Digital
Codec ID : A_AC3
Duration : 2 h 10 min
Bit rate mode : Constant
Bit rate : 192 kb/s
Channel(s) : 2 channels
Channel layout : L R
Sampling rate : 48.0 kHz
Frame rate : 31.250 FPS (1536 SPF)
Compression mode : Lossy
Delay relative to video : 8 ms
Stream size : 179 MiB (3%)
Title : Максим Подзігун
Language : Ukrainian
Service kind : Complete Main
Default : Yes
Forced : Yes

Audio #2
ID : 3
Format : AC-3
Format/Info : Audio Coding 3
Commercial name : Dolby Digital
Codec ID : A_AC3
Duration : 2 h 10 min
Bit rate mode : Constant
Bit rate : 192 kb/s
Channel(s) : 2 channels
Channel layout : L R
Sampling rate : 48.0 kHz
Frame rate : 31.250 FPS (1536 SPF)
Compression mode : Lossy
Delay relative to video : 8 ms
Stream size : 179 MiB (3%)
Title : Роман Гончаров
Language : Ukrainian
Service kind : Complete Main
Default : No
Forced : No

Audio #3
ID : 4
Format : LC
Format/Info : Advanced Audio Codec Low Complexity
Codec ID : A_AAC-2
Duration : 2 h 10 min
Bit rate : 61.7 kb/s
Channel(s) : 2 channels
Channel layout : L R
Sampling rate : 44.1 kHz
Frame rate : 43.066 FPS (1024 SPF)
Compression mode : Lossy
Delay relative to video : 7 ms
Stream size : 57.5 MiB (1%)
Title : Sky Sports F1
Language : English
Default : No
Forced : No

Audio #4
ID : 5
Format : AC-3
Format/Info : Audio Coding 3
Commercial name : Dolby Digital
Codec ID : A_AC3
Duration : 2 h 10 min
Bit rate mode : Constant
Bit rate : 192 kb/s
Channel(s) : 2 channels
Channel layout : L R
Sampling rate : 48.0 kHz
Frame rate : 31.250 FPS (1536 SPF)
Compression mode : Lossy
Delay relative to video : 8 ms
Stream size : 179 MiB (3%)
Title : INT
Service kind : Complete Main
Default : No
Forced : No
Скріншоти:


Запис/зведення: sergiyko



Срібний реліз (на рейтинг впливає 50% завантаженого)
 Трекер:    Зареєстрований   

Завантажити / скачати торрент



відео для новачків



 Зареєстрований:   2020-08-16 18:55
 Розмір:   5.59 GB 
 Оцінка:   10/10 (Голосів: 32)
   
Dron1994 
Частий відвідувач


З нами з: 07.07.14
Востаннє: 27.10.20
Повідомлень: 34

2020-08-17 11:21  
Щось Валера здає позиції... Чи то просто керівницство вирішило шоу зробити і випустити Тапка вперед в особистому заліку?
iamandriy 
Новенький


З нами з: 25.03.18
Востаннє: 28.10.20
Повідомлень: 5

2020-08-17 12:12  
дякую,але чомусь не всі плеєри дають можливість слухати Подзігуна
Ваш часовий пояс: GMT + 2 Години

Нова тема   Відповісти