Ліга Чемпіонів 2019-2020 / 1/4 фіналу / Барселона (Іспанія) – Баварія (Німеччіна) (14.08.2020) HDTV 1080i Ukr/Int

Нові коментарі

Нова тема   Відповісти
Автор Повідомлення
sergiyko.5 
VIP


З нами з: 25.02.16
Востаннє: 21.10.20
Повідомлень: 3586

2020-08-16 18:02  
Ліга Чемпіонів 2019-2020 / 1/4 фіналу / Барселона (Іспанія) – Баварія (Німеччіна) (14.08.2020) HDTV 1080i Ukr/Int


Ліга Чемпіонів 2019-2020 / 1/4 фіналу / Барселона (Іспанія) – Баварія (Німеччіна) (14.08.2020) HDTV 1080i Ukr/Int

Телеканал: Футбол 1 HD
Коментатор: Кирил Круторогов і Роман Тимощук

Опис:
Ліга Чемпіонів 2019-2020 1/4 фіналу Барселона (Іспанія) – Баварія (Німеччіна)

Якість: HDTV

Відео: кодек: розмір кадру: 1920x1080 бітрейт: ~9800 кб/с
Аудіо: мова: українська кодек: 2.0 бітрейт: 192 кб/с
Аудіо: мова: - кодек: MP2 2.0 бітрейт: 192 кб/с
Склад команд:

Тривалість:
01:43:11
Про файл:
General
Unique ID : 328191531171756042740108113165956083466 (0xF6E763C5DB393D6D06D1C66793AAEF0A)
Complete name : D:\Documents\Torrents\FILMS\CL.2019-20.Quarter-final.Barcelona-Bayern.HDTV.1080i.
Format :
Format version : Version 4
File size : 7.32 GiB
Duration : 1 h 43 min
Overall bit rate : 10.2 Mb/s
Movie name : rip by sergiyko
Encoded date : UTC 2020-08-16 14:51:24
Writing application : v47.0.0 ('Black Flag') 64-bit
Writing library : libebml v1.3.10 + v1.5.2

Video
ID : 1
Format : AVC
Format/Info : Advanced Video Codec
Format profile : [email protected]
Format settings : CABAC / 5 Ref Frames
Format settings, CABAC : Yes
Format settings, Reference : 5 frames
Codec ID : V_MPEG4/ISO/AVC
Duration : 1 h 43 min
Bit rate : 9 775 kb/s
Width : 1 920 pixels
Height : 1 080 pixels
Display aspect ratio : 16:9
Frame rate mode : Constant
Frame rate : 25.000 FPS
Color space : YUV
Chroma subsampling : 4:2:0
Bit depth : 8 bits
Scan type : MBAFF
Scan type, store method : Interleaved fields
Scan order : Top Field First
Bits/(Pixel*Frame) : 0.189
Stream size : 7.05 GiB (96%)
Writing library : core 159
Encoding settings : cabac=1 / ref=5 / deblock=1:0:0 / analyse=0x3:0x113 / me=hex / subme=8 / psy=1 / psy_rd=1.00:0.00 / mixed_ref=1 / me_range=16 / chroma_me=1 / trellis=2 / 8x8dct=1 / cqm=0 / deadzone=21,11 / fast_pskip=1 / chroma_qp_offset=-2 / threads=24 / lookahead_threads=4 / sliced_threads=0 / nr=0 / decimate=1 / interlaced=tff / bluray_compat=0 / constrained_intra=0 / bframes=3 / b_pyramid=2 / b_adapt=1 / b_bias=0 / direct=3 / weightb=1 / open_gop=0 / weightp=0 / keyint=250 / keyint_min=25 / scenecut=40 / intra_refresh=0 / rc_lookahead=50 / rc=crf / mbtree=1 / crf=21.0 / qcomp=0.60 / qpmin=0 / qpmax=69 / qpstep=4 / ip_ratio=1.40 / aq=1:1.00
Language : English
Default : Yes
Forced : No

Audio #1
ID : 2
Format : AC-3
Format/Info : Audio Coding 3
Commercial name : Dolby Digital
Codec ID : A_AC3
Duration : 1 h 43 min
Bit rate mode : Constant
Bit rate : 192 kb/s
Channel(s) : 2 channels
Channel layout : L R
Sampling rate : 48.0 kHz
Frame rate : 31.250 FPS (1536 SPF)
Compression mode : Lossy
Stream size : 142 MiB (2%)
Language : Ukrainian
Service kind : Complete Main
Default : Yes
Forced : Yes

Audio #2
ID : 3
Format : MPEG Audio
Format version : Version 1
Format profile : Layer 2
Codec ID : A_MPEG/L2
Codec ID/Hint : MP2
Duration : 1 h 43 min
Bit rate mode : Constant
Bit rate : 192 kb/s
Channel(s) : 2 channels
Sampling rate : 48.0 kHz
Frame rate : 41.667 FPS (1152 SPF)
Compression mode : Lossy
Stream size : 142 MiB (2%)
Default : No
Forced : No
Скріншоти:


Зведення: sergiyko


Золотий реліз (завантажене не впливає на рейтинг)
 Трекер:    Зареєстрований   

Завантажити / скачати торрент



відео для новачків



 Зареєстрований:   2020-08-16 18:02
 Розмір:   7.32 GB 
 Оцінка:   10/10 (Голосів: 7)
   
antik_2008 
Релізер і модератор відео


З нами з: 20.10.08
Востаннє: 20.10.20
Повідомлень: 4188

2020-08-16 18:11  
sergiyko.5 Дякую!

Цікавий матч!

увійшов в історію Happy

tilda4334 
VIP


З нами з: 15.08.14
Востаннє: 20.10.20
Повідомлень: 1111

2020-08-16 19:01  
Німецьке порно)
В цьому матчі Баварія просто космос

Ваш часовий пояс: GMT + 2 Години

Нова тема   Відповісти