Мангеттен / Manhattan (1979) 1080p H.265 3xUkr/Eng | Sub Ukr/Eng

Нові коментарі

Нова тема   Відповісти
Автор Повідомлення
Anonymous 







2020-08-16 02:44  
Мангеттен / Manhattan (1979) 1080p H.265 3xUkr/Eng | Sub Ukr/Eng

Мангеттен / Manhattan (1979) 1080p H.265 3xUkr/Eng | Sub Ukr/Eng


Жанр: комедія, драма, романтичний
Країна: США
Кінокомпанія: Jack Rollins & Charles H. Joffe Productions
Режисер: Вуді Аллен / Woody Allen
Актори: Вуді Аллен / Woody Allen, Даян Кітон / Diane Keaton, Майкл Мерфі / Michael Murphy, Меріел Гемінгвей / Mariel Hemingway, Меріл Стріп / Meryl Streep, Енн Берн Гофман / Anne Byrne Hoffman, Карен Людвіг / Karen Ludwig

Сюжет:
Айзек, 42-річний чоловік, нещодавно розлучився з Джил. Вона тепер живе з іншою жінкою, Конні, й пише книгу, в якій збирається описати деталі своїх стосунків з Айзеком. Айзек зустрічається із сімнадцятирічною Трейсі, коли зустрічає Мері - коханку свого друга Єйла. А Єйл уже одружений з Емілі...

Тривалість: 01:36:19
Якість: (Власний Rip)

Відео:
кодек: H.265 (HEVC)
розмір кадру: 1916 x 820
бітрейт: 15 916 кб/с
бітова глибина: 10 біт

Увага! Перед завантаженням переконайтесь, що ваш пристрій відтворення (та/або ПЗ) підтримує H.265 (HEVC)

Аудіо # 1:
мова: українська
переклад: багатоголосий закадровий
кодек: PCM 2.0
бітрейт: 2306 кб/с

Аудіо # 2:
мова: українська
переклад: двоголосий закадровий
кодек: AC-3 2.0
бітрейт: 192 кб/с

Аудіо # 3:
мова: українська
переклад: одноголосий закадровий | Орися (antusyrzhuk)
кодек: 2.0
бітрейт: 157 кб/с

Аудіо # 4:
мова: англійська
переклад: оригінал
кодек: 2.0
бітрейт: 1510 кб/с

Субтитри # 1: (SDH by antusyrzhuk)
мова: українська
тип: програмні (м'які)
формат: *.srt

Субтитри # 2: (SDH)
мова: англійська
тип: програмні (м'які)
формат: *.srt


Info
Код:
General
Unique ID                                : 139986928691686891886184197805362547145 (0x6950807496DE91777DD044E8660289C9)
Complete name                            : Manhattan (1979) 1080p H.265 [3xUKR_ENG] [Hurtom].
Format                                   :
Format version                           : Version 4
File size                                : 13.5 GiB
Duration                                 : 1 h 36 min
Overall bit rate                         : 20.1 Mb/s
Movie name                               : Мангеттен / Manhattan (1979)
Encoded date                             : UTC 2020-08-12 19:53:09
Writing application                      : v20.0.0 ('I Am The Sun') 64-bit
Writing library                          : libebml v1.3.5 + v1.4.8
Cover                                    : Yes
Attachments                              : cover

Video
ID                                       : 1
Format                                   : HEVC
Format/Info                              : High Efficiency Video Coding
Format profile                           : Main [email protected]@High
Codec ID                                 : V_MPEGH/ISO/HEVC
Duration                                 : 1 h 36 min
Bit rate                                 : 15.9 Mb/s
Width                                    : 1 916 pixels
Height                                   : 820 pixels
Display aspect ratio                     : 2.35:1
Frame rate mode                          : Constant
Frame rate                               : 23.976 (24000/1001) FPS
Color space                              : YUV
Chroma subsampling                       : 4:2:0
Bit depth                                : 10 bits
Bits/(Pixel*Frame)                       : 0.423
Stream size                              : 10.7 GiB (79%)
Title                                    : Мангеттен / Manhattan (1979)
Writing library                          : x265 3.2+5-354901970679:[Windows][clang 8.0.1][64 bit] 10bit
Encoding settings                        : cpuid=1111039 / frame-threads=13 / numa-pools=12 / wpp / no-pmode / no-pme / no-psnr / no-ssim / log-level=3 / input-csp=1 / input-res=1916x820 / interlace=0 / total-frames=0 / level-idc=51 / high-tier=1 / uhd-bd=0 / ref=5 / allow-non-conformance / no-repeat-headers / annexb / no-aud / no-hrd / info / hash=0 / no-temporal-layers / open-gop / min-keyint=24 / keyint=240 / gop-lookahead=0 / bframes=12 / b-adapt=2 / b-pyramid / bframe-bias=0 / rc-lookahead=60 / lookahead-slices=5 / scenecut=40 / radl=0 / no-splice / no-intra-refresh / ctu=64 / min-cu-size=8 / rect / amp / max-tu-size=32 / tu-inter-depth=4 / tu-intra-depth=4 / limit-tu=0 / rdoq-level=2 / dynamic-rd=0.00 / no-ssim-rd / signhide / no-tskip / nr-intra=0 / nr-inter=0 / no-constrained-intra / no-strong-intra-smoothing / max-merge=3 / limit-refs=1 / no-limit-modes / me=3 / subme=7 / merange=57 / temporal-mvp / no-frame-dup / no-hme / weightp / weightb / no-analyze-src-pics / deblock=-3:-3 / no-sao / no-sao-non-deblock / rd=6 / selective-sao=0 / early-skip / rskip / no-fast-intra / no-tskip-fast / no-cu-lossless / b-intra / no-splitrd-skip / rdpenalty=0 / psy-rd=2.00 / psy-rdoq=1.00 / no-rd-refine / no-lossless / cbqpoffs=0 / crqpoffs=0 / rc=crf / crf=20.5 / qcomp=0.60 / qpstep=4 / stats-write=0 / stats-read=0 / vbv-maxrate=50000 / vbv-bufsize=50000 / vbv-init=0.9 / crf-max=30.0 / crf-min=0.0 / ipratio=1.40 / pbratio=1.30 / aq-mode=1 / aq-strength=1.00 / no-cutree / zone-count=0 / no-strict-cbr / qg-size=32 / no-rc-grain / qpmax=69 / qpmin=0 / no-const-vbv / sar=1 / overscan=0 / videoformat=5 / range=0 / colorprim=2 / transfer=2 / colormatrix=2 / chromaloc=0 / display-window=0 / cll=0,0 / min-luma=0 / max-luma=1023 / log2-max-poc-lsb=8 / vui-timing-info / vui-hrd-info / slices=1 / no-opt-qp-pps / no-opt-ref-list-length-pps / no-multi-pass-opt-rps / scenecut-bias=0.05 / no-opt-cu-delta-qp / no-aq-motion / no-hdr / no-hdr-opt / no-dhdr10-opt / no-idr-recovery-sei / analysis-reuse-level=5 / scale-factor=0 / refine-intra=0 / refine-inter=0 / refine-mv=1 / refine-ctu-distortion=0 / no-limit-sao / ctu-info=0 / no-lowpass-dct / refine-analysis-type=0 / copy-pic=1 / max-ausize-factor=1.0 / no-dynamic-refine / no-single-sei / no-hevc-aq / no-svt / no-field / qp-adaptation-range=1.00
Default                                  : Yes
Forced                                   : No
Color range                              : Limited

Audio #1
ID                                       : 2
Format                                   : PCM
Format settings                          : Little / Signed
Codec ID                                 : A_PCM/INT/LIT
Duration                                 : 1 h 36 min
Bit rate mode                            : Constant
Bit rate                                 : 2 304 kb/s
Channel(s)                               : 2 channels
Sampling rate                            : 48.0 kHz
Frame rate                               : 200.000 FPS (240 SPF)
Bit depth                                : 24 bits
Stream size                              : 1.55 GiB (11%)
Title                                    : LPCM / 2.0 Ch / 2304 kbps / MVO / Цікава ідея
Language                                 : Ukrainian
Default                                  : Yes
Forced                                   : Yes

Audio #2
ID                                       : 3
Format                                   : AC-3
Format/Info                              : Audio Coding 3
Commercial name                          : Dolby Digital
Codec ID                                 : A_AC3
Duration                                 : 1 h 36 min
Bit rate mode                            : Constant
Bit rate                                 : 192 kb/s
Channel(s)                               : 2 channels
Channel layout                           : L R
Sampling rate                            : 48.0 kHz
Frame rate                               : 31.250 FPS (1536 SPF)
Compression mode                         : Lossy
Stream size                              : 132 MiB (1%)
Title                                    : / 2.0 Ch / 192 kbps / DVO / Enter-flim
Language                                 : Ukrainian
Service kind                             : Complete Main
Default                                  : No
Forced                                   : No

Audio #3
ID                                       : 4
Format                                   : LC
Format/Info                              : Advanced Audio Codec Low Complexity
Codec ID                                 : A_AAC-2
Duration                                 : 1 h 36 min
Bit rate                                 : 158 kb/s
Channel(s)                               : 2 channels
Channel layout                           : L R
Sampling rate                            : 48.0 kHz
Frame rate                               : 46.875 FPS (1024 SPF)
Compression mode                         : Lossy
Stream size                              : 109 MiB (1%)
Title                                    : / 2.0 Ch / 192 kbps / VO / Орися (antusyrzhuk)
Language                                 : Ukrainian
Default                                  : No
Forced                                   : No

Audio #4
ID                                       : 5
Format                                   :
Format/Info                              : Digital Theater Systems
Codec ID                                 : A_DTS
Duration                                 : 1 h 36 min
Bit rate mode                            : Constant
Bit rate                                 : 1 509 kb/s
Channel(s)                               : 2 channels
Channel layout                           : L R
Sampling rate                            : 48.0 kHz
Frame rate                               : 93.750 FPS (512 SPF)
Bit depth                                : 24 bits
Compression mode                         : Lossy
Stream size                              : 1.02 GiB (8%)
Title                                    : / 2.0 Ch / 1509 kbps / Original
Language                                 : English
Default                                  : No
Forced                                   : No

Text #1
ID                                       : 6
Format                                   : UTF-8
Codec ID                                 : S_TEXT/UTF8
Codec ID/Info                            : UTF-8 Plain Text
Duration                                 : 1 h 35 min
Bit rate                                 : 144 b/s
Count of elements                        : 1452
Stream size                              : 101 KiB (0%)
Title                                    : SDH by antusyrzhuk
Language                                 : Ukrainian
Default                                  : Yes
Forced                                   : No

Text #2
ID                                       : 7
Format                                   : UTF-8
Codec ID                                 : S_TEXT/UTF8
Codec ID/Info                            : UTF-8 Plain Text
Duration                                 : 1 h 34 min
Bit rate                                 : 94 b/s
Count of elements                        : 1451
Stream size                              : 64.9 KiB (0%)
Title                                    : SDH
Language                                 : English
Default                                  : No
Forced                                   : No

Menu
00:00:00.000                             : :New York!
00:04:08.873                             : :Smoking at Elaine's
00:06:47.532                             : :Serious Talks
00:11:02.536                             : :Overrated Intellectuals
00:18:40.828                             : :"I Quit!"
00:21:38.046                             : :Black-Tie Event
00:24:04.317                             : :Getting Acquainted
00:28:33.086                             : :The Morning After
00:32:12.639                             : :Picking Up Willy
00:35:10.775                             : :Enlightening Date
00:41:14.513                             : :"It's Your Night!"
00:44:34.630                             : :"I Can't Do This!"
00:50:40.579                             : :"He Led Me On!"
00:53:53.980                             : :First Kiss
00:59:13.132                             : :"So Long" Over Sodas
01:03:16.918                             : :Falling in Love
01:05:58.996                             : :Confronting the Exes
01:11:55.769                             : :Revealing Literature
01:14:49.735                             : :Stunned & Confused
01:18:24.491                             : :"We're Just People!"
01:21:26.339                             : :Broken Hearts
01:24:08.376                             : :Dictating Life
01:27:09.474                             : :"I Made a Mistake!"
01:33:56.130                             : :End Credits
Світлини




Джерело: &
Особиста оцінка: 0 - не дивився


Авторський реліз (завантажувати можна без реєстрації)
 Трекер:    Зареєстрований   

Завантажити / скачати фільм українською



відео для новачків



 Зареєстрований:   2020-08-16 02:44
 Розмір:   13.51 GB 
 Оцінка фільму:   7.8/10 (Голосів: 4)
   
Інші релізи
   Мангеттен / Manhattan (1979) AVC 3xUkr/Eng | Sub Ukr/Eng MutuLI  8 / 0   2.33 GB   2020-03-29 14:21 
   Мангеттен / Manhattan (1979) 2xUkr/Eng lenina4040  4 / 0   1.59 GB   2015-05-26 18:42 
   Мангеттен / Manhattan (1979) Remux Ukr/Eng | sub Eng Цікава ідея  1 / 0   28.16 GB   2014-07-03 22:33 
   Мангеттен / Manhattan (1979) Ukr/Eng Цікава ідея  3 / 0   1.46 GB   2014-07-03 16:24 
   Мангеттен / Manhattan (1979) 720p Ukr/Eng | sub Ukr/Eng Цікава ідея  3 / 0   5.27 GB   2014-07-03 16:22 
   Мангеттен / Manhattan (1979) AVC Ukr / Eng | sub Ukr / Eng antusyrzhuk  2 / 0   1.42 GB   2012-11-03 18:06 
Ваш часовий пояс: GMT + 2 Години

Нова тема   Відповісти