Перший месник: Друга вiйна / Captain America: The Winter Soldier (2014) UHD Remux 4K 2160p HDR H.265 Ukr/Eng | Sub Ukr/Eng

Нові коментарі

Нова тема   Відповісти
Автор Повідомлення
RoMeL 
Відео Гуртом - підтримка та поширення
Відео Гуртом - підтримка та поширення


З нами з: 09.07.08
Востаннє: 21.09.20
Повідомлень: 169

2020-08-16 01:57  
Перший месник: Друга вiйна / Captain America: The Winter Soldier (2014) UHD Remux 4K 2160p HDR H.265 Ukr/Eng | Sub Ukr/Eng



Жанр: бойовик, пригодницький, фантастика
Країна: США



Кінокомпанія: Marvel Entertainment, Marvel Studios, Sony Pictures Imageworks
Режисер: Ентоні Руссо, Джо Руссо
Актори: Кріс Еванс, Скарлет Йоганссон, Роберт Редфорд, Семюель Л. Джексон, Себастьян Стен, Ентоні Макі, Кобі Смолдерс, Френк Ґрілло, Максиміліано Ернандес, Емілі ВанКемп

Сюжет:
Після безпрецедентних подій, які вперше зібрали разом команду Месників, Стів Роджерс, відомий як Капітан Америка, осідає у Вашинґтоні і намагається пристосуватися до життя в сучасному світі. Але спокій герою тільки сниться - намагаючись допомогти колезі з агентства Щ. И. Т, Стів опиняється у центрі подій, які загрожують катастрофою світового масштабу. Для того, щоб викрити злочинну змову, Капітан Америка об'єднується з Чорною вдовою і з новим соратником, відомим як Яструб. Проте ніхто з них навіть не підозрює, на що здатний новий ворог.


Тривалість: 02:15:54
Якість: Remux 4K 2160p HDR H.265
Відео:
кодек: H.265 (HEVC)
розмір кадру: 3840 х 2160
бітрейт: 44,9 Мбіт/сек
бітова глибина: 10 біт
кольоровий простір: BT.2020 (HDR)

Увага! Перед завантаженням переконайтесь, що ваш пристрій відтворення (та/або ПЗ) підтримує H.265 (HEVC)

Аудіо # 1:
мова: українська
переклад: професійний дубльований
кодек: 5.1
бітрейт: 384 кб/с

Аудіо # 2:
мова: англійська
переклад: оригінал
кодек: TrueHD Atmos 7.1
бітрейт: 4 137 кб/с

Аудіо # 3:
мова: англійська
переклад: оригінал
кодек: 5.1
бітрейт: 640 кб/с

Аудіо # 4:
мова: англійська, коментарій до фільму Anthony Russo/Joe Russo/Christopher Markus/Stephen McFeely
переклад: оригінал
кодек: 2.0
бітрейт: 192 кб/с

Субтитри # 1:
мова: українська (форсовані)
тип: програмні (м'які)
формат: *.

Субтитри # 2-3:
мова: англійська (Full,SDH)
тип: програмні (м'які)
формат: *.pgs

Субтитри # 4:
мова: англійська, коментарій до фільму Anthony Russo/Joe Russo/Christopher Markus/Stephen McFeely
тип: програмні (м'які)
формат: *.pgs
Info
Код:
General
Unique ID                                : 189734612818263540997065714672065662408 (0x8EBD8EA6B692C5BB44EA126C9DF54DC8)
Complete name                            : /Volumes/Download/Movies/Captain.America.The.Winter.Soldier.2014.Remux.2160p.HDR.[Ukr.Eng].
Format                                   :
Format version                           : Version 4
File size                                : 47.8 GiB
Duration                                 : 2h 15mn
Overall bit rate mode                    : Variable
Overall bit rate                         : 50.4 Mbps
Movie name                               : Captain.America.The.Winter.Soldier.2014.Remux.2160p.HDR.[Ukr.Eng]
Encoded date                             : UTC 2020-08-02 09:42:21
Writing application                      : v47.0.0 ('Black Flag') 64-bit
Writing library                          : libebml v1.3.10 + v1.5.2
Attachments                              : 140715211714124631_f0_0.jpg

Video
ID                                       : 1
Format                                   : HEVC
Format/Info                              : High Efficiency Video Coding
Format profile                           : Main [email protected]@High
HDR format                               : SMPTE ST 2086, HDR10 compatible
Codec ID                                 : V_MPEGH/ISO/HEVC
Duration                                 : 2h 15mn
Bit rate                                 : 44.9 Mbps
Width                                    : 3 840 pixels
Height                                   : 2 160 pixels
Display aspect ratio                     : 16:9
Frame rate mode                          : Constant
Frame rate                               : 23.976 (24000/1001) fps
Color space                              : YUV
Chroma subsampling                       : 4:2:0 (Type 2)
Bit depth                                : 10 bits
Bits/(Pixel*Frame)                       : 0.226
Stream size                              : 42.6 GiB (89%)
Default                                  : Yes
Forced                                   : No
Color range                              : Limited
Color primaries                          : BT.2020
Transfer characteristics                 : PQ
Matrix coefficients                      : BT.2020 non-constant
Mastering display color primaries        : Display P3
Mastering display luminance              : min: 0.0020 cd/m2, max: 1000 cd/m2
Maximum Content Light Level              : 793 cd/m2
Maximum Frame-Average Light Level        : 679 cd/m2

Audio #1
ID                                       : 2
Format                                   : AC-3
Format/Info                              : Audio Coding 3
Commercial name                          : Dolby Digital
Codec ID                                 : A_AC3
Duration                                 : 2h 15mn
Bit rate mode                            : Constant
Bit rate                                 : 384 Kbps
Channel(s)                               : 6 channels
Channel layout                           : L R C LFE Ls Rs
Sampling rate                            : 48.0 KHz
Frame rate                               : 31.250 fps (1536 SPF)
Compression mode                         : Lossy
Stream size                              : 373 MiB (1%)
Title                                    : 5.1 @ 384 Kbps
Language                                 : Ukrainian
Service kind                             : Complete Main
Default                                  : Yes
Forced                                   : No

Audio #2
ID                                       : 3
Format                                   : MLP FBA 16-ch
Format/Info                              : Meridian Lossless Packing FBA with 16-channel presentation
Commercial name                          : Dolby TrueHD with Dolby Atmos
Codec ID                                 : A_TRUEHD
Duration                                 : 2h 15mn
Bit rate mode                            : Variable
Bit rate                                 : 4 137 Kbps
Maximum bit rate                         : 7 701 Kbps
Channel(s)                               : 8 channels
Channel layout                           : L R C LFE Ls Rs Lb Rb
Sampling rate                            : 48.0 KHz
Frame rate                               : 1 200.000 fps (40 SPF)
Compression mode                         : Lossless
Stream size                              : 3.93 GiB (8%)
Title                                    : TrueHD Atmos 7.1
Language                                 : English
Default                                  : No
Forced                                   : No
Number of dynamic objects                : 13
Bed channel count                        : 1 channel
Bed channel configuration                : LFE

Audio #3
ID                                       : 4
Format                                   : AC-3
Format/Info                              : Audio Coding 3
Commercial name                          : Dolby Digital
Codec ID                                 : A_AC3
Duration                                 : 2h 15mn
Bit rate mode                            : Constant
Bit rate                                 : 640 Kbps
Channel(s)                               : 6 channels
Channel layout                           : L R C LFE Ls Rs
Sampling rate                            : 48.0 KHz
Frame rate                               : 31.250 fps (1536 SPF)
Compression mode                         : Lossy
Stream size                              : 622 MiB (1%)
Title                                    : 5.1
Language                                 : English
Service kind                             : Complete Main
Default                                  : No
Forced                                   : No

Audio #4
ID                                       : 5
Format                                   : AC-3
Format/Info                              : Audio Coding 3
Commercial name                          : Dolby Digital
Codec ID                                 : A_AC3
Duration                                 : 2h 15mn
Bit rate mode                            : Constant
Bit rate                                 : 192 Kbps
Channel(s)                               : 2 channels
Channel layout                           : L R
Sampling rate                            : 48.0 KHz
Frame rate                               : 31.250 fps (1536 SPF)
Compression mode                         : Lossy
Stream size                              : 187 MiB (0%)
Title                                    : Commentary by Anthony Russo/Joe Russo/Christopher Markus/Stephen McFeely
Language                                 : English
Service kind                             : Complete Main
Default                                  : No
Forced                                   : No

Text #1
ID                                       : 6
Format                                   :
Codec ID                                 : S_TEXT/
Codec ID/Info                            : Advanced Sub Station Alpha
Duration                                 : 2h 8mn
Bit rate                                 : 1 bps
Count of elements                        : 30
Compression mode                         : Lossless
Stream size                              : 1.71 KiB (0%)
Title                                    : Forced
Language                                 : Ukrainian
Default                                  : No
Forced                                   : Yes

Text #2
ID                                       : 7
Format                                   : PGS
Muxing mode                              : zlib
Codec ID                                 : S_HDMV/PGS
Codec ID/Info                            : Picture based subtitle format used on BDs/HD-DVDs
Duration                                 : 2h 8mn
Bit rate                                 : 29.5 Kbps
Count of elements                        : 2974
Stream size                              : 27.2 MiB (0%)
Title                                    : English
Language                                 : English
Default                                  : No
Forced                                   : No

Text #3
ID                                       : 8
Format                                   : PGS
Muxing mode                              : zlib
Codec ID                                 : S_HDMV/PGS
Codec ID/Info                            : Picture based subtitle format used on BDs/HD-DVDs
Duration                                 : 2h 8mn
Bit rate                                 : 34.4 Kbps
Count of elements                        : 3300
Stream size                              : 31.7 MiB (0%)
Title                                    : English (SDH)
Language                                 : English
Default                                  : No
Forced                                   : No

Text #4
ID                                       : 9
Format                                   : PGS
Muxing mode                              : zlib
Codec ID                                 : S_HDMV/PGS
Codec ID/Info                            : Picture based subtitle format used on BDs/HD-DVDs
Duration                                 : 2h 15mn
Bit rate                                 : 78.1 Kbps
Count of elements                        : 5438
Stream size                              : 75.8 MiB (0%)
Title                                    : English (Commentary)
Language                                 : English
Default                                  : No
Forced                                   : No

Menu
00:00:00.000                             : en:Prologue
00:03:28.667                             : en:Hostages on the Lemurian Star
00:13:31.728                             : en:Don't Hold Your Breath
00:17:57.868                             : en:Steve Visits the Smithsonian
00:22:25.302                             : en:Project Insight
00:33:20.415                             : en:In Pursuit
00:41:27.276                             : en:Steve Meets Alexander Pierce
00:51:37.303                             : en:Fugitives from S.H.I.E.L.D.
00:58:23.959                             : en:Uncovering the Past
01:07:40.348                             : en:Call It a Resume
01:16:22.203                             : en:Facing Off with the Winter Soldier
01:24:43.078                             : en:Captain's Orders
01:32:17.699                             : en:Paying a Price
01:37:06.612                             : en:Engaging
01:49:13.088                             : en:The End of the Line
01:55:03.730                             : en:Battle over the Potomac
02:01:11.055                             : en:Life after S.H.I.E.L.D.
02:06:22.241                             : en:End Credits
Скріншоти





Джерело: &
Особиста оцінка: 10 - без зайвих вагань рекомендую всім!


Золотий реліз (завантажене не впливає на рейтинг)
 Трекер:    Зареєстрований   

Завантажити / скачати фільм українською



відео для новачків



 Зареєстрований:   2020-08-16 01:57
 Розмір:   47.81 GB 
 Оцінка фільму:   10/10 (Голосів: 2)
   
Інші релізи
   Перший месник: Друга вiйна / Captain America: The Winter Soldier (2014) Remux 1080p Ukr/Eng | Sub Eng Argentum  3 / 0   32.44 GB   2017-08-17 16:20 
   Перший месник: Друга вiйна (Капітан Америка: Зимовий солдат) / Captain America: The Winter Soldier (2014) 1080p 3D [Half OverUnder] Ukr/Eng | Sub Ukr/Eng GEORGKys  0 / 2   14.29 GB   2015-02-05 19:50 
   Перший месник: Друга вiйна / Captain America: The Winter Soldier (2014) 1080p H.265 Ukr/Eng | Sub Ukr/Eng Tenax555  3 / 0   8.74 GB   2014-09-27 23:43 
   Перший месник: Друга вiйна / Captain America: The Winter Soldier (2014) 720p-mini [60fps] Ukr/Eng | Sub Eng VolSHeBniK17  4 / 0   6.41 GB   2014-08-22 22:11 
   Перший месник: Друга вiйна / Captain America: The Winter Soldier (2014) 1080p Ukr/Eng | Sub Eng 11FrYkT  13 / 0   11.24 GB   2014-08-17 19:46 
   Перший месник: Друга вiйна / Captain America: The Winter Soldier (2014) 720p Ukr/Eng | Sub Eng 11FrYkT  18 / 0   5.36 GB   2014-08-17 19:25 
   Перший месник: Друга вiйна / Captain America: The Winter Soldier (2014) 720p-mini Drool  3 / 0   2.89 GB   2014-08-17 13:04 
   Перший месник: Друга вiйна / Captain America: The Winter Soldier (2014) patriot2305  13 / 0   1.64 GB   2014-08-15 23:05 
   Перший месник: Друга вiйна / Captain America: The Winter Soldier (2014) AngryBirdsUA  2 / 0   2.18 GB   2014-08-15 21:18 
   Перший месник: Друга вiйна / Captain America: The Winter Soldier (2014) AVC Ukr/Eng | Sub Eng Gelios  7 / 0   2.18 GB   2014-08-15 16:07 
sirkon10 
Частий відвідувач


З нами з: 13.05.12
Востаннє: 21.09.20
Повідомлень: 46

2020-08-16 16:31  
Мушу зазначити, що тут Fake 4K, але варто дивитися через присутність HDR
Ваш часовий пояс: GMT + 2 Години

Нова тема   Відповісти